<?xml version="1.0" standalone="no"?>
<!DOCTYPE svg PUBLIC "-//W3C//DTD SVG 1.1//EN" "http://www.w3.org/Graphics/SVG/1.1/DTD/svg11.dtd" >
<svg xmlns="http://www.w3.org/2000/svg">
<metadata>Generated by IcoMoon</metadata>
<defs>
<font id="icomoon" horiz-adv-x="1024">
<font-face units-per-em="1024" ascent="960" descent="-64" />
<missing-glyph horiz-adv-x="1024" />
<glyph unicode="&#x20;" horiz-adv-x="512" d="" />
<glyph unicode="&#xe600;" glyph-name="arrow-left" d="M737.229 80.998c13.722-13.875 13.722-36.25 0-50.125s-35.891-13.875-49.613 0l-400.896 404.838c-13.722 13.875-13.722 36.301 0 50.125l400.896 404.89c13.722 13.875 35.891 13.875 49.613 0s13.722-36.25 0-50.125l-365.568-379.802 365.568-379.802z" />
<glyph unicode="&#xe601;" glyph-name="arrow-down" d="M132.198 686.029c-13.875 13.722-36.301 13.722-50.125 0-13.824-13.67-13.824-35.891 0-49.613l404.89-400.896c13.875-13.722 36.25-13.722 50.125 0l404.89 400.896c13.824 13.722 13.875 35.891 0 49.613s-36.352 13.722-50.125 0.051l-379.853-365.619-379.802 365.568z" />
<glyph unicode="&#xe602;" glyph-name="arrow-up" d="M891.802 235.571c13.875-13.722 36.301-13.722 50.125 0 13.875 13.722 13.875 35.891 0 49.613l-404.89 400.896c-13.824 13.722-36.25 13.722-50.074 0l-404.89-400.896c-13.824-13.722-13.875-35.891 0-49.613s36.25-13.722 50.125 0l379.802 365.619 379.802-365.619z" />
<glyph unicode="&#xe603;" glyph-name="arrow-right" d="M286.704 80.998c-13.722-13.875-13.722-36.25 0-50.125s35.891-13.875 49.613 0l400.896 404.838c13.722 13.875 13.722 36.301 0 50.125l-400.896 404.89c-13.722 13.875-35.891 13.875-49.613 0s-13.722-36.25 0-50.125l365.568-379.802-365.568-379.802z" />
<glyph unicode="&#xe604;" glyph-name="camera" d="M304 352c0-114.876 93.124-208 208-208s208 93.124 208 208-93.124 208-208 208-208-93.124-208-208zM960 704h-224c-16 64-32 128-96 128h-256c-64 0-80-64-96-128h-224c-35.2 0-64-28.8-64-64v-576c0-35.2 28.8-64 64-64h896c35.2 0 64 28.8 64 64v576c0 35.2-28.8 64-64 64zM512 68c-156.85 0-284 127.148-284 284 0 156.85 127.15 284 284 284 156.852 0 284-127.15 284-284 0-156.852-127.146-284-284-284zM960 512h-128v64h128v-64z" />
<glyph unicode="&#xe605;" glyph-name="location2" d="M512 960c-176.732 0-320-143.268-320-320 0-320 320-704 320-704s320 384 320 704c0 176.732-143.27 320-320 320zM512 444c-108.248 0-196 87.752-196 196s87.752 196 196 196 196-87.752 196-196-87.752-196-196-196zM388 640c0 68.483 55.517 124 124 124s124-55.517 124-124c0-68.483-55.517-124-124-124s-124 55.517-124 124z" />
<glyph unicode="&#xe606;" glyph-name="compass" d="M512 960c-282.77 0-512-229.23-512-512s229.23-512 512-512 512 229.23 512 512-229.23 512-512 512zM512 32c-229.75 0-416 186.25-416 416s186.25 416 416 416 416-186.25 416-416-186.25-416-416-416zM608 544l-288 160h-64v-64l160-288 288-160h64v64l-160 288zM512 384c-35.346 0-64 28.654-64 64s28.654 64 64 64c35.346 0 64-28.654 64-64s-28.654-64-64-64z" />
<glyph unicode="&#xe607;" glyph-name="zoomin" d="M992.262 88.604l-242.552 206.294c-25.074 22.566-51.89 32.926-73.552 31.926 57.256 67.068 91.842 154.078 91.842 249.176 0 212.078-171.922 384-384 384-212.076 0-384-171.922-384-384s171.922-384 384-384c95.098 0 182.108 34.586 249.176 91.844-1-21.662 9.36-48.478 31.926-73.552l206.294-242.552c35.322-39.246 93.022-42.554 128.22-7.356s31.892 92.898-7.354 128.22zM384 320c-141.384 0-256 114.616-256 256s114.616 256 256 256 256-114.616 256-256-114.614-256-256-256zM448 768h-128v-128h-128v-128h128v-128h128v128h128v128h-128z" />
<glyph unicode="&#xe608;" glyph-name="zoomout" d="M992.262 88.604l-242.552 206.294c-25.074 22.566-51.89 32.926-73.552 31.926 57.256 67.068 91.842 154.078 91.842 249.176 0 212.078-171.922 384-384 384-212.076 0-384-171.922-384-384s171.922-384 384-384c95.098 0 182.108 34.586 249.176 91.844-1-21.662 9.36-48.478 31.926-73.552l206.294-242.552c35.322-39.246 93.022-42.554 128.22-7.356s31.892 92.898-7.354 128.22zM384 320c-141.384 0-256 114.616-256 256s114.616 256 256 256 256-114.616 256-256-114.614-256-256-256zM192 640h384v-128h-384z" />
<glyph unicode="&#xe609;" glyph-name="share" d="M864 256c-45.16 0-85.92-18.738-115.012-48.83l-431.004 215.502c1.314 8.252 2.016 16.706 2.016 25.328s-0.702 17.076-2.016 25.326l431.004 215.502c29.092-30.090 69.852-48.828 115.012-48.828 88.366 0 160 71.634 160 160s-71.634 160-160 160-160-71.634-160-160c0-8.622 0.704-17.076 2.016-25.326l-431.004-215.504c-29.092 30.090-69.852 48.83-115.012 48.83-88.366 0-160-71.636-160-160 0-88.368 71.634-160 160-160 45.16 0 85.92 18.738 115.012 48.828l431.004-215.502c-1.312-8.25-2.016-16.704-2.016-25.326 0-88.368 71.634-160 160-160s160 71.632 160 160c0 88.364-71.634 160-160 160z" />
<glyph unicode="&#xe60a;" glyph-name="location22" d="M1009.613 958.464c-34.816 34.867-68.096 1.894-180.992-52.326-302.080-145.254-828.621-440.269-828.621-440.269l452.352-64.666 64.666-452.403c0 0 295.066 526.541 440.269 828.621 54.323 112.947 87.194 146.125 52.326 181.043zM901.12 842.035l-328.602-610.15-33.331 277.299 361.933 332.851z" />
<glyph unicode="&#xe60b;" glyph-name="chat" d="M296.96 348.16v317.44h-194.56c-56.32 0-102.4-46.080-102.4-102.4v-307.2c0-56.32 46.080-102.4 102.4-102.4h51.2v-153.6l153.6 153.6h256c56.32 0 102.4 46.080 102.4 102.4v93.184c-3.277-0.717-6.758-1.075-10.24-1.075h-358.4zM921.6 921.6h-460.8c-56.32 0-102.4-46.080-102.4-102.4v-409.6h358.4l153.6-153.6v153.6h51.2c56.32 0 102.4 46.080 102.4 102.4v307.2c0 56.32-46.080 102.4-102.4 102.4z" />
<glyph unicode="&#xe60c;" glyph-name="music" d="M604.109 911.411h-82.125v-669.286c-45.414 17.51-104.192 17.766-162.15-3.328-103.834-37.786-165.734-129.741-138.24-205.312 27.546-75.622 134.042-106.24 237.875-68.454 88.218 32.102 145.92 103.27 144.486 170.24l0.154 547.328c143.206-22.528 152.986-203.622 135.834-254.413-6.554-19.251 4.966-33.638 26.624 0 154.368 240.282-162.458 346.214-162.458 483.226z" />
<glyph unicode="&#xe60d;" glyph-name="cd" d="M512 931.84c-260.147 0-471.040-210.893-471.040-471.040s210.893-471.040 471.040-471.040 471.040 210.893 471.040 471.040-210.893 471.040-471.040 471.040zM512 307.2c-84.838 0-153.6 68.813-153.6 153.6 0 84.838 68.762 153.6 153.6 153.6 84.787 0 153.6-68.813 153.6-153.6s-68.813-153.6-153.6-153.6z" />
<glyph unicode="&#xe60e;" glyph-name="rss" d="M102.502 829.491v-121.242c362.803 0 656.896-294.144 656.896-656.947h121.293c0 429.773-348.416 778.189-778.189 778.189zM102.502 586.957v-121.293c228.864 0 414.413-185.498 414.413-414.362h121.19c0 295.782-239.77 535.654-535.603 535.654zM218.726 283.75c-64.154 0-116.224-52.070-116.224-116.275s52.070-116.224 116.224-116.224c64.205 0 116.275 52.019 116.275 116.224s-52.070 116.275-116.275 116.275z" />
<glyph unicode="&#xe60f;" glyph-name="checkmark" d="M424.704 102.4c-22.272 0-43.366 10.394-56.883 28.314l-182.989 241.562c-23.808 31.437-17.613 76.186 13.824 99.994 31.488 23.859 76.186 17.613 99.994-13.824l120.371-158.925 302.694 485.939c20.838 33.434 64.87 43.674 98.355 22.835 33.434-20.787 43.674-64.87 22.784-98.304l-357.53-573.952c-12.442-20.019-33.894-32.563-57.395-33.587-1.075-0.051-2.15-0.051-3.226-0.051z" />
<glyph unicode="&#xe610;" glyph-name="cross" d="M734.669 299.418l-141.21 161.382 141.21 161.382c24.013 24.013 24.013 62.925 0 86.886-24.013 23.962-62.925 23.962-86.886 0l-135.782-155.187-135.731 155.136c-24.013 24.013-62.925 24.013-86.886 0-23.962-24.013-23.962-62.925 0-86.886l141.158-161.331-141.21-161.382c-23.962-24.013-23.962-62.822 0-86.784 24.013-24.013 62.925-24.013 86.886 0l135.782 155.085 135.731-155.085c24.013-24.013 62.925-24.013 86.886 0s24.013 62.771 0.051 86.784z" />
<glyph unicode="&#xe611;" glyph-name="list" d="M819.2 512h-614.4c-28.262 0-51.2-22.938-51.2-51.2s22.938-51.2 51.2-51.2h614.4c28.314 0 51.2 22.938 51.2 51.2s-22.886 51.2-51.2 51.2zM204.8 614.4h614.4c28.314 0 51.2 22.938 51.2 51.2s-22.886 51.2-51.2 51.2h-614.4c-28.262 0-51.2-22.938-51.2-51.2s22.938-51.2 51.2-51.2zM819.2 307.2h-614.4c-28.262 0-51.2-22.886-51.2-51.2s22.938-51.2 51.2-51.2h614.4c28.314 0 51.2 22.886 51.2 51.2s-22.886 51.2-51.2 51.2z" />
<glyph unicode="&#xe612;" glyph-name="twitter" d="M983.040 752.998c-34.714-15.411-71.936-25.754-111.053-30.464 39.936 23.91 70.605 61.798 84.992 106.906-37.325-22.118-78.694-38.246-122.675-46.899-35.277 37.581-85.504 61.030-141.107 61.030-106.752 0-193.28-86.528-193.28-193.229 0-15.155 1.69-29.901 5.018-44.032-160.614 8.038-303.053 84.992-398.336 201.933-16.691-28.518-26.266-61.747-26.266-97.178 0-67.072 34.15-126.208 86.016-160.87-31.693 1.024-61.491 9.677-87.552 24.166 0-0.819 0-1.587 0-2.406 0-93.645 66.662-171.725 155.034-189.542-16.179-4.403-33.28-6.758-50.944-6.758-12.442 0-24.525 1.178-36.352 3.43 24.576-76.8 96-132.659 180.531-134.195-66.15-51.866-149.453-82.739-240.026-82.739-15.616 0-30.976 0.922-46.080 2.714 85.504-54.835 187.085-86.835 296.294-86.835 355.482 0 549.888 294.502 549.888 549.939 0 8.346-0.154 16.691-0.563 24.986 37.786 27.238 70.502 61.286 96.461 100.045z" />
<glyph unicode="&#xe613;" glyph-name="facebook" d="M768 761.395h-146.227c-17.306 0-36.608-22.733-36.608-53.197v-105.574h182.835v-150.528h-182.835v-452.096h-172.646v452.045h-156.518v150.579h156.518v88.576c0 127.027 88.166 230.4 209.203 230.4h146.278v-160.205z" />
<glyph unicode="&#xe614;" glyph-name="googleplus" d="M101.888 686.643c0-76.442 25.549-131.686 75.878-164.096 41.216-26.573 89.088-30.566 113.971-30.566 6.042 0 10.854 0.256 14.234 0.461 0 0-7.885-51.354 30.208-102.195l-1.741 0.051c-65.997 0-281.293-13.824-281.293-190.822 0-180.070 197.734-189.184 237.363-189.184 3.123 0 4.915 0.051 4.915 0.051 0.461 0 3.277-0.102 8.090-0.102 25.446 0 91.238 3.174 152.371 32.922 79.258 38.451 119.501 105.421 119.501 198.912 0 90.368-61.235 144.128-105.984 183.45-27.29 23.962-50.893 44.646-50.893 64.768 0 20.48 17.203 35.891 39.014 55.398 35.226 31.539 68.506 76.442 68.506 161.331 0 74.65-9.677 124.723-69.325 156.467 6.246 3.174 28.211 5.478 39.117 7.014 32.307 4.403 79.565 9.421 79.565 35.789v5.069h-235.418c-2.355-0.051-238.080-8.806-238.080-224.717zM481.946 225.178c4.506-71.987-57.088-125.133-149.555-131.84-93.901-6.912-171.264 35.379-175.77 107.366-2.15 34.56 13.005 68.403 42.752 95.386 30.208 27.29 71.578 44.134 116.685 47.514 5.325 0.307 10.598 0.563 15.872 0.563 86.886 0 145.766-51.098 150.016-118.989zM420.454 735.949c23.091-81.254-11.776-166.195-67.328-181.862-6.4-1.792-13.005-2.714-19.661-2.714-50.944 0-101.376 51.507-120.064 122.47-10.445 39.885-9.626 74.701 2.355 108.237 11.776 32.922 32.922 55.245 59.546 62.72 6.4 1.843 13.056 2.714 19.712 2.714 61.44 0 100.966-25.498 125.44-111.565zM817.203 559.002v153.6h-97.28v-153.6h-153.6v-97.28h153.6v-153.6h97.28v153.6h153.6v97.28h-153.6z" />
<glyph unicode="&#xe615;" glyph-name="linkedin" d="M259.891 816.64c0-54.426-40.192-98.509-106.291-98.509-62.208 0-102.4 44.083-102.4 98.509 0 55.706 41.523 98.509 105.011 98.509s102.4-42.803 103.68-98.509zM56.422 6.451v633.856h197.018v-633.856h-197.018zM371.354 438.118c0 79.053-2.611 145.152-5.222 202.189h171.11l9.114-88.166h3.891c25.907 41.523 89.446 102.4 195.738 102.4 129.587 0 226.816-86.835 226.816-273.51v-374.63h-197.018v351.283c0 81.664-28.57 137.421-99.84 137.421-54.426 0-86.784-37.581-101.069-73.882-5.222-12.954-6.502-31.078-6.502-49.254v-365.568h-197.018v431.718z" />
<glyph unicode="&#xe616;" glyph-name="spotify" d="M512 952.32c-271.462 0-491.52-220.058-491.52-491.52 0-124.109 45.978-237.466 121.856-323.891 76.902 76.902 182.221 120.064 303.104 116.173 154.214-5.018 275.968-78.029 345.754-196.813 128.256 88.678 212.326 236.749 212.326 404.531 0 271.462-220.058 491.52-491.52 491.52zM752.282 285.594c-8.653-14.336-27.187-18.739-41.472-10.086-113.869 69.53-257.024 85.248-425.677 46.746-16.179-3.738-32.461 6.4-36.096 22.733-3.738 16.128 6.349 32.41 22.63 36.096 184.576 42.189 342.886 23.962 470.579-53.965 14.234-8.704 18.79-27.29 10.035-41.523zM811.622 425.011c-10.906-17.818-34.202-23.347-51.917-12.39-130.253 80.026-328.806 103.219-482.867 56.474-20.019-6.042-41.114 5.274-47.104 25.139-6.042 20.019 5.222 41.114 25.139 47.104 175.974 53.504 394.752 27.597 544.358-64.307 17.766-11.059 23.347-34.202 12.39-52.019zM816.691 569.446c-156.16 92.826-413.747 101.274-562.842 56.064-23.962-7.322-49.254 6.195-56.525 30.157-7.219 23.962 6.298 49.357 30.157 56.525 171.213 51.968 455.68 41.933 635.443-64.819 21.555-12.8 28.672-40.602 15.923-62.157-12.851-21.453-40.602-28.518-62.157-15.77zM442.317 106.086c-69.171 2.202-126.72-24.73-168.755-75.162 70.605-39.27 151.91-61.645 238.438-61.645 41.728 0 82.227 5.222 120.934 15.002-37.069 76.134-101.734 118.938-190.618 121.805z" />
<glyph unicode="&#xe617;" glyph-name="instagram" d="M778.24 460.8c0-147.046-119.245-266.24-266.24-266.24-147.046 0-266.24 119.194-266.24 266.24 0 17.51 1.741 34.611 5.018 51.2h-179.098v-353.894c0-75.981 61.542-137.626 137.626-137.626h605.389c75.981 0 137.626 61.594 137.626 137.626v353.894h-179.046c3.226-16.589 4.966-33.69 4.966-51.2zM814.694 901.12h-605.389c-76.032 0-137.626-61.645-137.626-137.626v-149.094h222.925c48.179 68.096 127.59 112.64 217.395 112.64s169.216-44.544 217.395-112.64h222.925v149.094c0 75.981-61.645 137.626-137.626 137.626zM882.022 731.136c0-13.568-11.059-24.576-24.576-24.576h-73.677c-13.517 0-24.576 11.059-24.576 24.576v73.728c0 13.568 11.11 24.576 24.576 24.576h73.677c13.568 0 24.576-11.059 24.576-24.576v-73.728zM675.84 460.8c0 90.522-73.37 163.84-163.84 163.84s-163.84-73.318-163.84-163.84 73.37-163.84 163.84-163.84 163.84 73.318 163.84 163.84z" />
<glyph unicode="&#xe618;" glyph-name="home" d="M1024 352l-192 192v288h-128v-160l-192 192-512-512v-32h128v-320h320v192h128v-192h320v320h128z" />
<glyph unicode="&#xe619;" glyph-name="location" d="M512 960c-176.732 0-320-143.268-320-320 0-320 320-704 320-704s320 384 320 704c0 176.732-143.27 320-320 320zM512 444c-108.248 0-196 87.752-196 196s87.752 196 196 196 196-87.752 196-196-87.752-196-196-196zM388 640c0 68.483 55.517 124 124 124s124-55.517 124-124c0-68.483-55.517-124-124-124s-124 55.517-124 124z" />
<glyph unicode="&#xe61a;" glyph-name="quotes-left" d="M225 512c123.712 0 224-100.29 224-224 0-123.712-100.288-224-224-224s-224 100.288-224 224l-1 32c0 247.424 200.576 448 448 448v-128c-85.474 0-165.834-33.286-226.274-93.726-11.634-11.636-22.252-24.016-31.83-37.020 11.438 1.8 23.16 2.746 35.104 2.746zM801 512c123.71 0 224-100.29 224-224 0-123.712-100.29-224-224-224s-224 100.288-224 224l-1 32c0 247.424 200.576 448 448 448v-128c-85.474 0-165.834-33.286-226.274-93.726-11.636-11.636-22.254-24.016-31.832-37.020 11.44 1.8 23.16 2.746 35.106 2.746z" />
<glyph unicode="&#xe61b;" glyph-name="target" d="M1024 512h-100.924c-27.64 178.24-168.836 319.436-347.076 347.076v100.924h-128v-100.924c-178.24-27.64-319.436-168.836-347.076-347.076h-100.924v-128h100.924c27.64-178.24 168.836-319.436 347.076-347.076v-100.924h128v100.924c178.24 27.64 319.436 168.836 347.076 347.076h100.924v128zM792.822 512h-99.762c-19.284 54.55-62.51 97.778-117.060 117.060v99.762c107.514-24.49 192.332-109.31 216.822-216.822zM512 384c-35.346 0-64 28.654-64 64s28.654 64 64 64c35.346 0 64-28.654 64-64s-28.654-64-64-64zM448 728.822v-99.762c-54.55-19.282-97.778-62.51-117.060-117.060h-99.762c24.49 107.512 109.31 192.332 216.822 216.822zM231.178 384h99.762c19.282-54.55 62.51-97.778 117.060-117.060v-99.762c-107.512 24.49-192.332 109.308-216.822 216.822zM576 167.178v99.762c54.55 19.284 97.778 62.51 117.060 117.060h99.762c-24.49-107.514-109.308-192.332-216.822-216.822z" />
<glyph unicode="&#xe61c;" glyph-name="measure" d="M495.924 442.804h130.125v92.343c-27.605-37.457-71.34-68.851-126.769-91.044-1.083-0.433-2.273-0.866-3.356-1.299zM313.078 81.010h57.701v66.578c0 16.455 13.316 29.771 29.771 29.771s29.771-13.316 29.771-29.771v-66.578h63.871v136.403c0 16.455 13.316 29.771 29.771 29.771s29.771-13.316 29.771-29.771v-136.403h63.871v66.578c0 16.455 13.316 29.771 29.771 29.771s29.771-13.316 29.771-29.771v-66.578h63.871v136.403c0 16.455 13.316 29.771 29.771 29.771s29.771-13.316 29.771-29.771v-136.403h63.871v66.578c0 16.455 13.316 29.771 29.771 29.771s29.771-13.316 29.771-29.771v-66.578h56.727c23.925 0 43.303 19.378 43.303 43.303v240.113c0 23.926-19.378 43.303-43.303 43.303h-689.27c-80.651 3.139-156.106 23.492-214.456 58.134-32.26 19.161-57.809 41.895-75.888 67.336-0.325 0.433-0.65 0.866-0.974 1.299v-267.394c0-102.736 140.084-186.093 312.97-186.093zM299.655 443.020c4.44-0.109 8.877-0.217 13.424-0.217v0 0c128.934 0 239.679 46.334 287.53 112.587 16.348 22.517 25.332 47.416 25.332 73.506 0 102.844-140.084 186.093-312.971 186.093-172.886 0-312.97-83.358-312.97-186.093 0-26.090 9.094-50.989 25.332-73.506 46.443-63.871 151.127-109.231 274.324-112.37zM313.078 711.93c76.971 0 139.435-37.132 139.435-82.925 0-7.47-1.624-14.723-4.763-21.543-1.732-3.897-3.897-7.578-6.495-11.15-21.327-29.554-70.692-50.231-128.176-50.231-4.547 0-8.985 0.108-13.424 0.432-51.638 2.923-95.049 22.626-114.644 49.798-7.253 10.068-11.259 21.11-11.259 32.802-0.108 45.685 62.248 82.817 139.326 82.817z" />
<glyph unicode="&#xe61d;" glyph-name="smiley" d="M512-64c282.77 0 512 229.23 512 512s-229.23 512-512 512-512-229.23-512-512 229.23-512 512-512zM512 864c229.75 0 416-186.25 416-416s-186.25-416-416-416-416 186.25-416 416 186.25 416 416 416zM256 640c0 35.346 28.654 64 64 64s64-28.654 64-64c0-35.346-28.654-64-64-64s-64 28.654-64 64zM640 640c0 35.346 28.654 64 64 64s64-28.654 64-64c0-35.346-28.654-64-64-64s-64 28.654-64 64zM704.098 332.74l82.328-49.396c-55.962-93.070-157.916-155.344-274.426-155.344s-218.464 62.274-274.426 155.344l82.328 49.396c39.174-65.148 110.542-108.74 192.098-108.74s152.924 43.592 192.098 108.74z" />
<glyph unicode="&#xe61e;" glyph-name="sad" d="M512-64c282.77 0 512 229.23 512 512s-229.23 512-512 512-512-229.23-512-512 229.23-512 512-512zM512 864c229.75 0 416-186.25 416-416s-186.25-416-416-416-416 186.25-416 416 186.25 416 416 416zM256 640c0 35.346 28.654 64 64 64s64-28.654 64-64c0-35.346-28.654-64-64-64s-64 28.654-64 64zM640 640c0 35.346 28.654 64 64 64s64-28.654 64-64c0-35.346-28.654-64-64-64s-64 28.654-64 64zM319.902 179.26l-82.328 49.396c55.962 93.070 157.916 155.344 274.426 155.344 116.508 0 218.462-62.274 274.426-155.344l-82.328-49.396c-39.174 65.148-110.542 108.74-192.098 108.74-81.558 0-152.924-43.592-192.098-108.74z" />
<glyph unicode="&#xe61f;" glyph-name="plus" d="M992 576h-352v352c0 17.672-14.328 32-32 32h-192c-17.672 0-32-14.328-32-32v-352h-352c-17.672 0-32-14.328-32-32v-192c0-17.672 14.328-32 32-32h352v-352c0-17.672 14.328-32 32-32h192c17.672 0 32 14.328 32 32v352h352c17.672 0 32 14.328 32 32v192c0 17.672-14.328 32-32 32z" />
<glyph unicode="&#xe620;" glyph-name="paypal" d="M880.634 829.226c25.698-12.576 48.094-30.486 64.502-52.482 34.536-46.3 44.236-109.372 28.836-187.466-15.56-79.026-50.416-145.734-101.166-194.044-9.282-9.702-19.222-18.746-29.804-27.080-54.356-42.802-122.998-65.428-198.508-65.428h-240.060l-64.564-302.726h-132.424l10.086 46.3h46.128l64.564 302.726h188.27c180.25 0 330.938 111.078 371.258 299.936 45.722 213.834-107.598 311.038-239.41 311.038h-449.278l-199.064-913.7h152.032l-24.032-110.3h263.66l64.564 302.726h188.27c180.25 0 330.938 111.078 371.258 299.936 33.716 157.68-40.804 251.932-135.118 290.564zM640.262 648.962c-13.724-59.060-64.428-108.040-120.656-121.368l30.738 136.022h92.986c-0.728-4.806-1.722-9.69-3.068-14.654zM422.344 773.918h129.132c36.76 0 66.508-18.004 81.87-46.3h-134.154l-46.016-203.63h-87.312l56.48 249.93z" />
<glyph unicode="&#xe621;" glyph-name="keyboard53" d="M674.706-40.119l113.893 113.893-374.226 374.226 374.226 374.226-113.893 113.893-488.119-488.119z" />
<glyph unicode="&#xe622;" glyph-name="keyboard532" d="M349.294 936.119l-113.893-113.893 374.226-374.226-374.226-374.226 113.893-113.893 488.119 488.119z" />
<glyph unicode="&#xe623;" glyph-name="earth16" d="M874.040 810.038c96.704-96.704 149.96-225.28 149.96-362.040s-53.258-265.334-149.96-362.038c-96.706-96.702-225.28-149.96-362.040-149.96s-265.334 53.258-362.040 149.96c-96.702 96.704-149.96 225.278-149.96 362.038s53.254 265.336 149.96 362.040 225.28 149.962 362.040 149.962 265.334-53.258 362.040-149.962zM828.784 131.214c63.058 63.058 104.986 141.608 122.274 227.062-13.474-19.836-26.364-27.196-34.344 17.206-8.22 72.39-74.708 26.146-116.518 51.86-44.004-29.658-142.906 57.662-126.098-40.824 25.934-44.422 140.008 59.452 83.148-34.542-36.274-65.618-132.642-210.932-120.106-286.258 1.582-109.744-112.134-22.884-151.314 13.52-26.356 72.92-8.982 200.376-77.898 236.086-74.802 3.248-139.004 10.046-167.994 93.67-17.446 59.828 18.564 148.894 82.678 162.644 93.85 58.966 127.374-69.054 215.39-71.434 27.328 28.594 101.816 37.686 107.992 69.75-57.75 10.19 73.268 48.558-5.528 70.382-43.47-5.112-71.478-45.074-48.37-78.958-84.238-19.642-86.936 121.904-167.91 77.258-2.058-70.59-132.222-22.886-45.036-8.572 29.956 13.088-48.86 51.016-6.28 44.124 20.916 1.136 91.332 25.812 72.276 42.402 39.21 24.34 72.16-58.29 110.538 1.882 27.708 46.266-11.62 54.808-46.35 31.356-19.58 21.924 34.57 69.276 82.332 89.738 15.918 6.82 31.122 10.536 42.746 9.484 24.058-27.792 68.55-32.606 70.878 3.342-59.58 28.534-125.274 43.608-193.29 43.608-97.622 0-190.47-31.024-267.308-88.39 20.65-9.46 32.372-21.238 12.478-36.296-15.456-46.054-78.17-107.876-133.224-99.124-28.586-49.296-47.412-103.606-55.46-160.528 46.112-15.256 56.744-45.45 46.836-55.55-23.496-20.488-37.936-49.53-45.376-81.324 15.010-91.836 58.172-176.474 125.27-243.574 84.616-84.614 197.118-131.214 316.784-131.214 119.664 0 232.168 46.6 316.784 131.214z" />
<glyph unicode="&#xe624;" glyph-name="leftarrow5" horiz-adv-x="1025" d="M983.655 647.423c-54.016 125.922-145.748 217.654-271.682 271.682-63.409 27.199-129.4 40.895-198.856 40.895-69.468 0-135.961-13.827-199.429-40.895-126.986-54.16-219.243-145.545-273.355-271.682-27.116-63.206-40.333-129.4-40.333-198.868 0-69.456 13.217-136.211 40.333-199.418 54.112-126.137 146.369-218.084 273.355-272.244 63.469-27.068 129.961-40.895 199.429-40.895 69.456 0 135.447 13.695 198.856 40.895 125.934 54.028 217.666 146.322 271.682 272.244 27.199 63.409 40.895 129.961 40.895 199.418 0 69.468-13.695 135.459-40.895 198.868zM926.52 273.23c-23.769-55.355-55.462-103.634-95.783-143.967-39.783-39.771-87.955-71.703-143.406-95.783-55.462-24.092-113.159-35.851-174.214-35.851-81.227 0-156.922 20.041-226.318 60.493-68.966 40.213-123.914 95.162-164.128 164.128-40.452 69.396-60.493 145.091-60.493 226.306 0 81.227 20.16 156.288 60.493 225.195s95.162 123.914 164.128 164.128c69.396 40.452 145.091 60.505 226.318 60.505s156.288-20.172 225.183-60.505c68.906-40.333 123.592-95.353 163.578-164.128 40.118-69.026 60.493-143.967 60.493-225.195 0-61.055-11.998-119.768-35.851-175.325zM366.915 445.198l250.386 257.126c11.054 11.341 11.771 30.247-1.111 43.129-11.21 11.198-30.976 11.915-43.703-1.123l-271.682-278.398c-11.066-11.341-11.759-30.82 1.123-43.703l270.559-270.559c6.166-6.166 13.444-9.525 21.857-9.525 8.951 0 16.802 3.358 22.957 9.525 11.21 11.21 12.082 31.059 0 43.129l-250.386 250.398z" />
<glyph unicode="&#xe625;" glyph-name="leftarrow52" horiz-adv-x="1025" d="M41.345 248.577c54.016-125.922 145.748-217.654 271.682-271.682 63.409-27.199 129.4-40.895 198.856-40.895 69.468 0 135.961 13.827 199.429 40.895 126.986 54.16 219.243 145.545 273.355 271.682 27.116 63.206 40.333 129.4 40.333 198.868 0 69.456-13.217 136.211-40.333 199.418-54.112 126.137-146.369 218.084-273.355 272.244-63.469 27.068-129.961 40.895-199.429 40.895-69.456 0-135.447-13.695-198.856-40.895-125.934-54.028-217.666-146.322-271.682-272.244-27.199-63.409-40.895-129.961-40.895-199.418 0-69.468 13.695-135.459 40.895-198.868zM98.48 622.77c23.769 55.355 55.462 103.634 95.783 143.967 39.783 39.771 87.955 71.703 143.406 95.783 55.462 24.092 113.159 35.851 174.214 35.851 81.227 0 156.922-20.041 226.318-60.493 68.966-40.213 123.914-95.162 164.128-164.128 40.452-69.396 60.493-145.091 60.493-226.306 0-81.227-20.16-156.288-60.493-225.195s-95.162-123.914-164.128-164.128c-69.396-40.452-145.091-60.505-226.318-60.505s-156.288 20.172-225.183 60.505c-68.906 40.333-123.592 95.353-163.578 164.128-40.118 69.026-60.493 143.967-60.493 225.195 0 61.055 11.998 119.768 35.851 175.325zM658.085 450.802l-250.386-257.126c-11.054-11.341-11.771-30.247 1.111-43.129 11.21-11.198 30.976-11.915 43.703 1.123l271.682 278.398c11.066 11.341 11.759 30.82-1.123 43.703l-270.559 270.559c-6.166 6.166-13.444 9.525-21.857 9.525-8.951 0-16.802-3.358-22.957-9.525-11.21-11.21-12.082-31.059 0-43.129l250.386-250.398z" />
<glyph unicode="&#xe626;" glyph-name="circle10" horiz-adv-x="1152" d="M203.887 549.631c-3.646 7.314-9.411 13.344-16.57 17.873-7.469 4.574-16.283 7.776-26.357 9.677-10.252 1.857-22.095 2.695-35.812 2.829l-63.341-0.044c-6.585-0.089-13.035-5.215-14.581-11.577l-42.619-185.63c-1.548-6.297 2.585-11.555 9.169-11.555h30.334c6.585 0 13.103 5.125 14.56 11.555l10.406 45.071c1.392 6.275 7.887 11.51 14.539 11.51h8.683c37.095 0.066 65.815 7.623 86.452 22.8 20.747 15.201 30.974 35.282 30.974 60.161-0.021 10.892-1.81 20.038-5.833 27.328zM138.469 488.983c-9.169-6.717-21.917-10.074-38.354-10.074h-7.402c-6.606 0-10.649 5.215-9.213 11.577l9.125 39.414c1.281 6.318 7.932 11.555 14.45 11.51l9.942 0.066c11.599 0 20.46-2.011 26.381-5.9 5.856-3.844 8.794-9.964 8.75-18.074 0.154-12.327-4.551-21.828-13.675-28.523zM555.462 513.198l-120.852-204.387c-3.889-6.385-12.483-11.534-19.023-11.534l-31.418-0.044c-6.518 0-8.66 5.191-4.683 11.555l26.866 46.816c0 0 2.166 2.717 0.243 17.962-4.131 27.637-24.766 145.067-24.766 145.067-1.479 6.364 2.542 11.577 9.081 11.577l27.174 0.044c8.33 0 15.023-5.479 16.526-11.886l13.521-81.459 5.037-0.066c4.22 7.49 47.655 82.034 47.655 82.034 4.154 6.297 12.548 11.577 19.090 11.577 0 0 29.185-0.089 36.367 0 10.803 0.221-0.817-17.255-0.817-17.255zM754.722 548.946c-3.801 7.357-9.478 13.3-16.702 17.939-7.357 4.595-16.129 7.822-26.357 9.677-10.052 1.789-22.050 2.762-35.682 2.783l-63.43-0.044c-6.606-0.11-12.969-5.237-14.471-11.534l-42.663-185.739c-1.548-6.297 2.695-11.51 9.147-11.51l30.379 0.044c6.45-0.044 13.078 5.149 14.581 11.468l10.273 45.092c1.503 6.297 8.020 11.577 14.581 11.51h8.683c37.117 0 65.926 7.645 86.65 22.779 20.46 15.31 30.82 35.349 30.82 60.25-0.089 10.87-1.966 20.038-5.81 27.285zM689.303 488.21c-9.147-6.585-21.917-9.942-38.266-9.942h-7.556c-6.518-0.066-10.758 5.237-9.28 11.555l9.191 39.348c1.326 6.297 7.954 11.577 14.493 11.51l9.853 0.066c11.666-0.066 20.414-1.987 26.381-5.877 5.921-3.889 8.75-9.986 8.837-18.074 0.044-12.35-4.551-21.828-13.653-28.588zM350.147 523.095c-11.445 6.45-29.516 9.677-54.218 9.677-12.218 0-24.391-0.95-36.698-2.851-9.081-1.392-9.964-1.657-15.553-2.873-11.534-2.519-13.344-14.029-13.344-14.029l-3.711-15.267c-2.098-9.743 3.514-9.367 5.856-8.55 5.037 1.503 7.844 3.049 18.139 5.346 9.831 2.233 20.193 3.91 28.413 3.801 12.13 0 21.409-1.281 27.595-3.889 6.097-2.652 9.147-7.203 9.147-13.787l-0.53-4.286-4.373-2.695c-17.21-1.082-29.649-2.674-44.739-4.861-14.759-2.054-27.706-5.655-38.465-10.582-11.555-5.082-20.128-11.908-26.115-20.59-5.788-8.725-8.683-19.309-8.683-31.727 0-11.687 4.198-21.319 12.35-28.788 8.196-7.335 19.023-10.915 31.968-10.915 8.196 0.044 14.539 0.685 19.044 1.767l14.692 5.059 12.439 6.915 11.445 7.534 0.154-0.199-1.148-4.861-0.066-0.177v-0.044c-1.238-5.921 2.342-10.803 8.108-11.356l0.11-0.132h28.17l0.397 0.177c6.054 0.706 11.73 5.568 13.056 11.356l22.116 95.709 1.148 7.799 0.53 7.314c0.11 13.521-5.766 23.573-17.233 30.003zM301.254 415.456l-4.727-6.252-11.93-6.164c-5.612-2.254-10.937-3.445-15.862-3.445-7.469 0-13.323 1.082-17.277 3.314l-5.856 11.356c0 6.188 1.414 11.046 4.441 14.802l12.858 8.75c5.501 1.857 12.218 3.424 19.995 4.508 6.937 0.861 20.636 2.429 22.426 2.474l2.098-3.69c-0.42-2.054-4.308-18.315-6.164-25.65zM1058.64 590.325h10.141v-4.176h-10.141v-13.5l0.044-3.646 0.73-2.429 1.59-1.548 3.114-0.485 2.542 0.353 1.9 0.576h0.267v-4.441l-3.049-0.597-2.916-0.243-6.871 2.474-2.365 7.776v15.708h-3.402v4.176h3.402v8.416h5.014v-8.416zM901.090 522.962c-11.51 6.45-29.561 9.698-54.196 9.698-12.218 0-24.435-0.95-36.676-2.916-9.102-1.326-10.007-1.614-15.619-2.804-11.534-2.497-13.3-14.051-13.3-14.051l-3.711-15.244c-2.077-9.743 3.424-9.301 5.966-8.55 5.037 1.503 7.776 2.983 17.984 5.369 9.81 2.209 20.238 3.844 28.501 3.801 12.063 0 21.341-1.303 27.529-3.91 6.142-2.652 9.147-7.247 9.147-13.765l-0.463-4.265-4.352-2.762c-17.364-1.038-29.826-2.628-44.762-4.817-14.714-2.054-27.728-5.633-38.508-10.582-11.51-5.103-20.193-11.93-26.115-20.613-5.833-8.725-8.683-19.286-8.683-31.615 0-11.776 4.176-21.409 12.394-28.832 8.263-7.314 18.977-10.979 31.925-10.979 8.154 0.089 14.493 0.619 19.023 1.789l14.67 4.971 12.527 6.915 11.356 7.645 0.199-0.243-1.038-4.882-0.11-0.089 0.066-0.089c-1.37-5.921 2.209-10.827 8.063-11.356l0.044-0.11h0.53c3.823 0 17.034 0 23.33 0h4.286l0.442 0.154c5.987 0.73 11.666 5.59 12.902 11.421l22.204 95.597 1.148 7.844 0.641 7.335c0 13.5-5.766 23.507-17.343 29.936zM852.287 415.323l-4.905-6.297-11.843-6.142c-5.612-2.233-10.958-3.424-15.798-3.424-7.687 0-13.411 1.082-17.255 3.314l-5.921 11.334c0 6.188 1.457 11.025 4.352 14.825 2.938 3.623 7.423 6.561 12.991 8.725 5.435 1.857 12.153 3.358 19.972 4.485 6.894 0.885 20.547 2.474 22.314 2.497l2.119-3.711c-0.309-2.033-4.22-18.227-6.031-25.606zM1014.851 566.289l0.066-0.021-40.608-184.039-1.457-2.209c-2.365-5.17-7.534-9.367-13.078-9.367h-28.213l-0.463 0.641c-5.391 0.817-8.905 5.125-7.623 10.782l-0.044 0.154 1.216 5.302 38.001 172.639 1.37 6.009 1.503 2.342c2.452 5.082 7.469 9.213 13.035 9.213h27.174c6.54 0.044 10.494-5.125 9.125-11.445zM1115.597 588.182l2.319-8.241v-19.154h-4.928v16.858l-0.331 3.601-0.619 2.851-1.767 1.701-3.27 0.597-4.154-1.038-4.198-2.674 0.089-1.436 0.066-1.569v-18.868h-4.928v16.858l-0.221 3.646-0.73 2.829-1.678 1.701-3.358 0.597-4.085-1.017-4.131-2.563v-22.027h-4.905v29.494h4.928v-3.27l4.661 3.005 4.928 1.082 5.125-1.216 3.161-3.514 5.435 3.667 5.346 1.082 7.247-2.983z" />
<glyph unicode="&#xe627;" glyph-name="checkbox" d="M756.206 129.761h-608.318v608.322h474.797l136.535 136.533h-747.866v-881.389h881.385v564.372l-136.533-136.535zM297.472 554.585l-96.545-96.543 231.765-231.767 579.953 579.955-96.545 96.543-483.408-483.408z" />
<glyph unicode="&#xe628;" glyph-name="user58" d="M510.854 356.967c-137.906 0-249.638 133.946-249.638 299.058 0 165.092 111.732 287.466 249.638 287.466 137.927 0 249.755-122.372 249.755-287.466 0-165.113-111.828-299.058-249.755-299.058zM122.532-47.316c0 0-52.954-3.495-76.274 28.641-12.602 17.36-3.825 52.545 4.796 72.177l21.107 48.098c0 0 58.37 130.547 124.82 206.201 40.817 46.389 89.362 35.826 120.762 20.738 19.34-9.282 41.204-36.332 57.186-50.661 22.020-19.748 60.895-42.195 124.45-43.457h38.992c63.517 1.262 102.393 23.709 124.393 43.457 15.962 14.331 37.225 42.215 56.39 51.808 28.816 14.428 72.683 23.301 112.431-21.884 66.468-75.653 119.11-208.57 119.11-208.57l21.631-47.167c8.953-19.495 18.117-54.507 5.865-72.1-21.865-31.457-70.954-27.283-70.954-27.283h-784.704z" />
<glyph unicode="&#xe629;" glyph-name="magnifying47" d="M675.293 823.139c-148.427 148.462-390.004 148.462-538.431 0-148.397-148.462-148.397-390.004 0-538.465 132.18-132.145 338.038-146.305 486.37-43.116 3.121-14.768 10.297-28.861 21.749-40.348l216.159-216.125c31.466-31.437 82.37-31.437 113.74 0 31.466 31.437 31.466 82.337 0 113.74l-216.159 216.19c-11.421 11.421-25.547 18.598-40.316 21.687 103.251 148.397 89.095 354.192-43.116 486.436zM607.047 352.921c-110.814-110.814-291.129-110.814-401.941 0-110.749 110.814-110.749 291.129 0 401.941 110.814 110.814 291.129 110.814 401.941 0s110.814-291.129 0-401.941z" />
<glyph unicode="&#xe62a;" glyph-name="download7" d="M512 192l320 320h-192v384h-256l1.152-384h-193.152zM768 192v-128h-512v128h-128v-256h768v256z" />
<glyph unicode="&#xe62b;" glyph-name="paid" d="M1012.282 793.904h-1000.565v-691.809h1000.565v691.809zM945.722 168.656h-867.445v558.688h867.445v-558.688zM575.203 595.76h66.56v-272.106h-66.56v272.106zM430.925 429.165h45.153v-105.51h66.56v271.881h-178.273v-271.881h66.56v105.51zM430.925 528.976h45.153v-33.251h-45.153v33.251zM225.634 429.165h111.713v166.371h-178.273v-271.881h66.56v105.51zM225.634 528.976h45.153v-33.251h-45.153v33.251zM864.926 380.184v160.252l-64.547 55.101h-120.099v-270.453h120.099l64.547 55.099zM798.366 410.879l-22.533-19.236h-28.991v137.333h28.991l22.533-19.236v-98.861z" />
<glyph unicode="&#xe62c;" glyph-name="lock73" d="M815.002 570.132h-32.031v91.597c0 149.402-121.559 270.961-270.971 270.961s-270.971-121.559-270.971-270.961v-91.597h-32.031c-11.305 0-20.48-9.175-20.48-20.48v-565.862c0-11.305 9.175-20.48 20.48-20.48h606.003c11.305 0 20.48 9.175 20.48 20.48v565.862c0 11.305-9.165 20.48-20.48 20.48zM512 818.196c86.282 0 156.477-70.185 156.477-156.467v-91.597h-312.955v91.597c0 86.272 70.195 156.467 156.477 156.467z" />
<glyph unicode="&#xe62d;" glyph-name="apple4" horiz-adv-x="580" d="M505.333 960h-430.872c-41.185 0-74.461-33.429-74.461-74.576v-874.849c0-41.108 33.276-74.537 74.461-74.537h430.834c41.185 0 74.537 33.429 74.537 74.537v874.849c0.038 41.146-33.314 74.576-74.499 74.576zM183.573 914.689h212.724c5.387 0 9.704-8.023 9.704-17.994 0-9.933-4.317-17.994-9.704-17.994h-212.724c-5.387 0-9.666 8.061-9.666 17.994 0 9.971 4.279 17.994 9.666 17.994zM289.935 9.659c-26.247 0-47.603 21.318-47.603 47.603s21.395 47.527 47.603 47.527c26.208 0 47.565-21.28 47.565-47.527 0-26.285-21.395-47.603-47.565-47.603zM524.015 172.716h-468.16v661.438h468.16v-661.438z" />
<glyph unicode="&#xe62e;" glyph-name="comments" horiz-adv-x="1255" d="M506.892 804.033c-279.96 0-506.892-174.527-506.892-389.917 0-105.59 54.666-201.587 143.411-271.772-5.147-71.589-22.381-159.164-72.291-206.344 99.351 0 200.885 62.231 265.066 110.892 53.341-14.661 110.736-22.693 170.706-22.693 279.96 0 506.892 174.449 506.892 389.917 0 215.39-226.932 389.917-506.892 389.917zM1180.669 376.138c42.657 57.006 67.066 123.292 67.066 193.945 0 215.39-226.932 389.917-506.892 389.917-123.214 0-236.134-33.845-323.943-89.993 41.331 7.798 84.534 12.009 128.985 12.009 301.484 0 545.884-192.073 545.884-428.909 0-93.346-37.822-179.83-102.314-250.093 64.024-48.662 165.715-111.048 265.066-111.048-70.653 67.066-75.722 215.702-73.85 284.172z" />
<glyph unicode="&#xe62f;" glyph-name="calendar68" d="M128 800v128c0 17.688 14.312 32 32 32s32-14.312 32-32v-128c0-17.688-14.312-32-32-32s-32 14.312-32 32zM672 768c17.688 0 32 14.312 32 32v128c0 17.688-14.312 32-32 32s-32-14.312-32-32v-128c0-17.688 14.312-32 32-32zM1024 192c0-141.376-114.626-256-256-256s-256 114.626-256 256 114.626 256 256 256 256-114.626 256-256zM960 192c0 105.876-86.126 192-192 192s-192-86.126-192-192 86.126-192 192-192 192 86.124 192 192zM256 576h-128v-128h128v128zM128 256h128v128h-128v-128zM320 448h128v128h-128v-128zM320 256h128v128h-128v-128zM64 198.374v441.626h704v-128h64v249.624c0 38.876-31 70.376-69.312 70.376h-26.688v-32c0-35.25-28.688-64-64-64s-64 28.75-64 64v32h-384v-32c0-35.25-28.688-64-64-64s-64 28.75-64 64v32h-26.656c-38.312 0-69.344-31.5-69.344-70.376v-563.25c0-38.75 31.032-70.374 69.344-70.374h378.656v64h-378.656c-2.906 0-5.344 3-5.344 6.374zM640 448v128h-128v-128h128zM864 192h-96v96c0 17.688-14.312 32-32 32s-32-14.312-32-32v-128c0-17.688 14.312-32 32-32h128c17.688 0 32 14.312 32 32s-14.312 32-32 32z" />
<glyph unicode="&#xe630;" glyph-name="shield82" horiz-adv-x="864" d="M818.022 748.292c-132.869 38.475-255.176 107.102-357.252 200.6-8.098 7.394-18.405 11.107-28.68 11.107-10.211 0-20.486-3.681-28.584-11.107-102.077-93.498-224.351-162.126-357.284-200.6-27.336-7.906-46.221-32.969-46.221-61.457v-110.655c7.49-279.215 175.985-528.821 432.122-640.18 256.136 111.359 424.631 360.966 432.122 640.18v110.655c0 28.488-18.853 53.519-46.221 61.457zM768.216 577.524c-6.53-226.176-136.935-431.801-336.095-535.223-199.16 103.421-329.565 309.015-336.095 535.223v85.528c122.338 38.731 237.315 101.533 336.095 183.444 98.78-81.943 213.756-144.713 336.095-183.444v-85.528z" />
<glyph unicode="&#xe631;" glyph-name="speech117" d="M820.524 897.003h-617.047c-99.617 0-180.663-81.039-180.663-180.661v-375.679c0-99.622 81.046-180.665 180.663-180.665h425.968l153.961-153.94c4.605-4.61 10.766-7.056 17.036-7.056 3.099 0 6.234 0.591 9.209 1.834 9.006 3.717 14.873 12.519 14.873 22.253v136.957c97.776 2.141 176.661 82.337 176.661 180.619v375.678c0 99.622-81.044 180.663-180.661 180.663zM953.008 340.661c0-73.040-59.431-132.489-132.489-132.489h-20.092c-13.302 0-24.085-10.774-24.085-24.085v-102.851l-119.892 119.883c-4.513 4.516-10.645 7.053-17.027 7.053h-435.948c-73.052 0-132.489 59.445-132.489 132.489v375.679c0 73.062 59.437 132.489 132.489 132.489h617.045c73.055 0 132.489-59.423 132.489-132.489v-375.679zM286.166 580.935c-29.935 0-54.197-24.276-54.197-54.199 0-29.946 24.265-54.199 54.197-54.199 29.921 0 54.199 24.255 54.199 54.199 0 29.923-24.279 54.199-54.199 54.199zM511.997 580.935c-29.935 0-54.199-24.276-54.199-54.199 0-29.946 24.266-54.199 54.199-54.199 29.921 0 54.199 24.255 54.199 54.199-0.002 29.923-24.279 54.199-54.199 54.199zM737.828 580.935c-29.935 0-54.202-24.276-54.202-54.199 0-29.946 24.268-54.199 54.202-54.199 29.921 0 54.193 24.255 54.193 54.199 0 29.923-24.271 54.199-54.193 54.199z" />
<glyph unicode="&#xe632;" glyph-name="email20" horiz-adv-x="1088" d="M64.922 757.19v-628.272h947.808v628.272h-947.808zM538.832 369.205l-388.754 341.381h777.495l-388.742-341.381zM383.969 443.165l-272.443-239.25v478.5l272.443-239.25zM419.282 412.15l119.537-104.974 119.537 104.974 269.461-236.628h-777.985l269.449 236.628zM693.671 443.153l272.454 239.262v-478.5l-272.454 239.238z" />
<glyph unicode="&#xe633;" glyph-name="printer4" d="M933.543 656.988h-842.831c-32.222 0-58.43-26.156-58.43-58.378v-334.562c0-6.986 5.711-12.746 12.798-12.746h136.995c7.035 0 12.746 5.761 12.746 12.746v190.275h634.558v-190.275c0-6.986 5.66-12.746 12.746-12.746h136.843c7.086 0 12.849 5.761 12.849 12.746v334.562c-0.051 32.222-26.156 58.378-58.276 58.378zM174.275 513.923c-21.21 0-38.393 17.183-38.393 38.393s17.183 38.393 38.393 38.393c21.21 0 38.393-17.183 38.393-38.393s-17.183-38.393-38.393-38.393zM859.054 534.164h-201.645v52.259h201.645v-52.259zM713.95 61.536h-293.724l-110.688-0.714v352.51h-66.281v-359.086c0 0-2.446-55.063 54.145-55.063 56.644 0 436.482 0 436.482 0 41.707 0 47.109 31.764 47.109 71.124v343.026h-66.23l-0.816-351.796zM342.17 317.937h333.797v-57.665h-333.797v57.665zM345.229 187.415h333.849v-57.665h-333.849v57.665zM304.389 832.834h409.46v-139.495h63.935v146.837c0 31.254-25.392 56.644-56.644 56.644h-424.041c-31.254 0-56.644-25.442-56.644-56.644v-146.837h63.986v139.495z" />
<glyph unicode="&#xe634;" glyph-name="information68" d="M512 704c-35.328 0-64-28.672-64-64s28.672-64 64-64 64 28.64 64 64-28.64 64-64 64zM512 512c-35.328 0-64-28.64-64-64v-192c0-35.328 28.672-64 64-64s64 28.672 64 64v192c0 35.328-28.64 64-64 64zM512 960c-282.304 0-512-229.696-512-512s229.696-512 512-512 512 229.696 512 512-229.696 512-512 512zM512 32c-229.408 0-416 186.624-416 416s186.592 416 416 416c229.376 0 416-186.624 416-416s-186.624-416-416-416z" />
<glyph unicode="&#xe635;" glyph-name="help19" d="M512 960c-282.782 0-512-229.218-512-512s229.218-512 512-512c282.782 0 512 229.218 512 512s-229.218 512-512 512zM512 16c-238.594 0-432 193.406-432 432s193.406 432 432 432 432-193.406 432-432-193.406-432-432-432zM480 256h64v-64h-64v64zM635.468 659.704c-12.968 13.25-29.376 23.844-49.534 32.062-20.404 8.204-44.344 12.234-72.56 12.234-23.94 0-45.75-4.032-65.562-12.234-19.876-8.218-37-19.546-51.376-34.25-14.25-14.578-25.344-29.016-33-49.546-7.624-20.532-11.436-31.97-11.436-63.97h65.312c0 32 8.468 56.218 25.876 77.032 17.188 20.906 40.532 29.64 70.186 29.64 28.876 0 50.468-7.828 64.344-21.876 13.75-14.046 20.784-34.172 20.784-59.594 0-19.766-6.5-37.516-19.466-52.984-12.75-15.5-26.718-30.594-41.69-44.876-15.188-14.282-27.344-29.532-39.906-45.282s-17.44-34.092-17.44-54.998v-51.062h64v27.5c0 16.406 2.406 30.624 8.812 43.032 6.188 12.438 13.906 23.718 23.688 33.784 9.468 10.188 19.624 20 30.938 29.656 11 9.532 21.562 19.718 31.062 30.344 9.688 10.688 17.75 22.688 23.876 35.938 6.44 13.25 9.656 28.812 9.656 46.954 0 15.75-2.844 31.782-8.782 48.078-5.812 16.418-15.188 31.182-27.782 44.418z" />
<glyph unicode="&#xe636;" glyph-name="package30" horiz-adv-x="1030" d="M1029.626 681.832c0 0.425-2.488 0.825-2.538 1.238-0.075 0.663-1.288 1.325-1.463 1.963-0.138 0.5-0.975 0.95-1.175 1.425-0.225 0.525-0.688 1.063-0.975 1.55-0.275 0.488-0.825 0.9-1.175 1.338-0.313 0.413-0.688 0.838-1.050 1.213-0.425 0.413-0.963 0.738-1.438 1.088-0.338 0.263-0.663 0.563-1.038 0.788-0.075 0.038-0.163 0.050-0.225 0.1-0.113 0.050-0.2 0.15-0.3 0.2l-292.745 154.054-34.341 18.565c-1 0.538-2.075 0.913-3.15 1.163l-174.907 92.035c-3.675 1.95-8.076 1.925-11.726-0.050l-494.979-265.804c-0.075-0.038-0.138-0.1-0.213-0.15-0.063-0.025-0.125-0.038-0.188-0.075-0.388-0.238-0.713-0.563-1.075-0.838-0.475-0.35-0.975-0.663-1.388-1.075-0.35-0.35-0.625-0.775-0.925-1.163-0.363-0.463-0.775-0.888-1.075-1.4-0.25-0.45-0.413-0.938-0.613-1.413-0.225-0.525-0.5-1.025-0.663-1.575-0.15-0.575 2.175-1.175 2.1-1.775-0.063-0.475 2.15-0.925 2.15-1.413 0-0.025 0-0.050 0-0.088 0-0.025 0-0.050 0-0.075v-444.511h-4.513c0.013-12.501 2.088-13.026 6.126-15.314l495.004-283.106c1.925-1.088 4.050-2.738 6.176-2.738 2.1 0 4.188-0.038 6.076 1.013l505.105 285.056c4.1 2.288 6.238 2.588 6.251 15.089h4.888v444.524c0 0.025 0 0.050 0 0.075s0 0.050 0 0.088zM29.516 660.205l150.016-88.635v-163.343l42.43 11.726 34.741-57.819 56.444 14.064 53.556-74.233 1.938 162.28 123.426-70.795v-424.584l-462.551 266.704v424.634zM517.069 393.425l487.554 266.992v-424.784l-487.554-266.992v424.784zM507.368 415.115l-123.426 70.045 473.915 263.729 128.314-67.507-478.803-266.267zM507.343 933.335l150.954-79.434-471.089-257.091-149.041 84.572 469.177 251.953z" />
<glyph unicode="&#xe637;" glyph-name="star138" horiz-adv-x="1077" d="M784.056 314.157l86.928-378.128-332.669 199.59-332.669-199.638 86.967 378.128-292.613 254.806 386.462 34.048 151.853 357.047 151.853-357.047 386.462-34.048-292.574-254.758z" />
<glyph unicode="&#xe638;" glyph-name="wireless29" d="M790.016 634.816c-9.248 3.648-19.296 4.672-29.056 2.912l-44.832-7.968c-12.16-2.144-20.96-12.768-20.896-25.152l3.456-384.32c0 0 0.704-9.408-7.232-25.472l161.984-83.328-331.552-1.504c-12.288 0-22.24-10.016-22.24-22.304v-30.816c0-12.384 10.016-22.336 22.368-22.336h428.224c10.112 0 20.064 3.104 28.416 8.832l30.944 21.376c9.024 6.208 14.4 16.48 14.4 27.36v418.528c0 19.264-11.776 36.576-29.696 43.648l-204.288 80.544zM933.184 149.44c0-6.688-3.424-12.928-9.12-16.576-5.664-3.552-12.736-4-18.848-1.12l-160.768 76.256c-6.784 3.2-11.136 9.984-11.2 17.44l-3.712 321.952c-0.064 6.592 3.168 12.736 8.608 16.448 5.44 3.68 12.416 4.384 18.496 1.888l164.544-68.192c7.328-3.040 12.064-10.144 12.064-18.080l-0.064-330.016zM557.6 714.272c0-94.852-76.892-171.744-171.744-171.744s-171.744 76.892-171.744 171.744c0 94.852 76.892 171.744 171.744 171.744s171.744-76.892 171.744-171.744zM670.016 263.488c-12.704 35.424-47.328 54.496-87.296 41.184-72.96-24.256-170.016-48.128-223.616-6.752-30.016 23.2-56.768 71.104-48 99.712 42.464 102.080-64.736 229.824-150.976 229.376-76.736-0.32-160.128-92.352-160.128-92.352v-598.656l105.856-0.8c20.096 115.776 51.168 200.704 79.808 259.328-68.32 131.456-46.4 237.984-46.272 240.512 0 0 20.864-183.232 176.32-269.792 35.136-19.552 77.536-26.72 124.288-26.72 55.648 0.032 118.688 12.608 188.8 37.696 35.456 12.704 53.888 51.776 41.216 87.264zM698.112 725.472c-7.328-5.856-8.512-16.48-2.688-23.84 3.36-4.256 8.384-6.496 13.376-6.496 3.744 0 7.392 1.216 10.56 3.648 2.048 1.568 51.232 38.912 118.624 3.584 8.352-4.416 18.688-1.152 23.072 7.2 4.352 8.352 1.12 18.656-7.264 23.040-87.616 45.888-152.928-4.928-155.68-7.136zM898.688 784c4.384 8.352 1.152 18.656-7.2 23.040-144.768 75.872-251.68-7.392-256.128-10.976-7.328-5.888-8.608-16.64-2.688-23.968 3.328-4.224 8.352-6.4 13.376-6.4 3.68 0 7.456 1.216 10.624 3.744 0.896 0.768 93.728 73.088 218.944 7.392 8.384-4.384 18.688-1.152 23.072 7.168zM595.488 841.344c3.744 0 7.456 1.216 10.624 3.68 5.568 4.448 138.304 106.688 320.064 11.328 8.352-4.32 18.624-1.152 23.040 7.2 4.384 8.32 1.152 18.656-7.168 23.040-202.112 105.984-350.944-9.888-357.248-14.88-7.328-5.856-8.544-16.576-2.688-23.936 3.392-4.224 8.384-6.432 13.376-6.432z" />
<glyph unicode="&#xe639;" glyph-name="csv1" d="M605.103 83.293c1.178-0.081 2.332-0.179 3.527-0.179h268.19c31.37 0 56.889 25.527 56.889 56.889v621.714c0 31.362-25.519 56.889-56.889 56.889h-268.19c-1.187 0-2.349-0.106-3.527-0.179v74.216l-523.443-69.86v-744.318l523.443-71.664v76.491zM605.103 346.526h86.796v-32.516h-86.796v32.516zM605.103 350.59v33.126h86.796v-33.126h-86.796zM605.103 387.779v37.994h86.796v-37.994h-86.796zM605.103 429.836v42.529h86.796v-42.529h-86.796zM605.103 475.835v40.513h86.796v-40.513h-86.796zM605.103 519.826v40.513h86.796v-40.513h-86.796zM608.63 786.091h268.19c13.442 0 24.381-10.939 24.381-24.381v-621.714c0-13.442-10.939-24.381-24.381-24.381h-268.19c-1.203 0-2.365 0.179-3.527 0.358v194.568l287.825 0.008v257.325h-0.171v39.928l-287.655-0.008v177.94c1.162 0.179 2.316 0.358 3.527 0.358zM888.865 560.347v-245.727h-37.937v233.862h-26.047v-233.862h-21.699v209.839h-26.047v-209.839h-19.115v186.108h-26.047v-186.108h-36.604v245.727h193.495zM793.202 563.81v40.513h96.077v-36.45h-0.414v-4.063h-95.663zM789.723 563.81h-96.085v40.513h96.077v-40.513zM213.927 406.512c10.776-0.187 22.829 2.129 29.956 5.031l5.461-30.119c-6.648-3.373-21.569-6.745-40.781-6.233-53.362 1.422-80.156 37.4-80.156 84.098 0 55.938 36.742 88.031 83.651 89.267 18.538 0.496 32.76-3.17 39.205-6.542l-7.379-30.663c-7.363 3.161-17.522 5.998-30.192 5.786-28.014-0.471-49.461-18.781-49.461-55.678 0-33.199 18.221-54.41 49.697-54.947zM313.864 372.378c-19.001 0.512-37.539 6.095-46.73 11.654l7.493 31.882c9.972-5.494 25.413-11.126 41.464-11.394 17.473-0.301 26.795 7.070 26.795 18.481 0 10.915-8.046 17.18-28.282 24.787-27.559 10.077-45.3 25.844-45.3 50.729 0 29.208 23.365 52.183 62.765 53.215 19.172 0.512 33.426-3.291 43.699-7.761l-8.728-32.354c-6.908 3.291-19.098 8.038-35.718 7.761-16.457-0.268-24.381-8.111-24.381-17.099 0-11.045 9.395-15.848 31.159-24.251 30.224-11.37 44.633-27.624 44.633-52.59-0.008-29.688-22.357-54.305-68.868-53.061zM500.265 370.119l-48.51 1.252-57.108 179.111 43.999 1.13 22-75.987c6.242-21.504 11.939-42.268 16.286-64.967l0.829-0.008c4.632 21.821 10.394 43.422 16.717 64.293l23.845 78.702 45.779 1.162-63.837-184.686z" />
<glyph unicode="&#xe63a;" glyph-name="coins24" d="M637.23 298.661c1.664-7.003 2.77-14.071 2.77-21.321 0-22.665 0-20.014 0-42.679 0-94.254-143.278-170.661-320-170.661s-320 76.407-320 170.661c0 22.665 0 20.014 0 42.679 0 7.25 1.106 14.318 2.77 21.321 19.712-84.178 154.066-149.321 317.23-149.321s297.518 65.143 317.23 149.321zM320 21.339c-163.163 0-297.518 65.143-317.23 149.321-1.664-7.003-2.77-14.071-2.77-21.321 0-22.665 0-20.014 0-42.679 0-94.254 143.278-170.661 320-170.661s320 76.407 320 170.661c0 22.665 0 20.014 0 42.679 0 7.25-1.106 14.318-2.77 21.321-19.712-84.178-154.066-149.321-317.23-149.321zM320 533.33c-176.722 0-320-76.416-320-170.67s143.278-170.661 320-170.661 320 76.407 320 170.661c0 94.263-143.278 170.67-320 170.67zM704 192c-7.214 0-14.254 0.302-21.339 0.521 0-45.659 0-82.853 0-85.285 7.086-0.21 14.126-0.567 21.339-0.567 176.722 0 320 76.407 320 170.679 0 22.665 0 20.005 0 42.661 0 7.25-1.106 14.336-2.77 21.339-19.712-84.197-154.066-149.349-317.23-149.349zM704 618.67c176.731 0 320 76.407 320 170.67 0 94.254-143.269 170.661-320 170.661s-320-76.407-320-170.67c0-94.254 143.269-170.661 320-170.661zM704 576c-163.163 0-297.518 65.152-317.23 149.33-1.664-6.994-2.77-14.080-2.77-21.33 0-22.656 0-20.005 0-42.67 0-36.224 21.33-69.76 57.426-97.408 62.373-12.672 116.608-34.725 157.696-63.698 32.896-6.098 68.087-9.554 104.878-9.554 176.722 0 320 76.416 320 170.67 0 22.656 0 20.005 0 42.67 0 7.25-1.106 14.336-2.77 21.33-19.712-84.187-154.066-149.339-317.23-149.339zM704 448c-17.966 0-35.456 0.896-52.608 2.432 19.84-26.496 31.104-55.899 31.232-87.223 7.067-0.201 14.162-0.567 21.376-0.567 176.722 0 320 76.416 320 170.67 0 22.656 0 20.005 0 42.67 0 7.25-1.106 14.336-2.77 21.33-19.712-84.16-154.066-149.312-317.23-149.312zM704 320c-7.214 0-14.254 0.302-21.339 0.521 0-23.735 0-54.354 0-85.285 7.086-0.21 14.126-0.567 21.339-0.567 176.722 0 320 76.407 320 170.679 0 22.665 0 20.005 0 42.661 0 7.25-1.106 14.336-2.77 21.33-19.712-84.187-154.066-149.339-317.23-149.339z" />
<glyph unicode="&#xe63b;" glyph-name="royalty4" d="M154.068 77.342c3.63-16.244 7.264-32.567 10.893-48.891 228.519 51.115 465.473 51.115 693.991 0 3.67 16.325 7.341 32.644 10.934 48.891-235.664 52.679-480.117 52.679-715.821 0zM476.465 237.642c-53.42-1.055-106.762-4.723-159.908-10.893 22.766-9.099 39.596-28.466 41.862-53.145 1.76-18.822-4.723-36.55-16.048-49.945 40.692 4.373 81.652 7.185 122.618 8.395-13.005 11.754-21.869 28.391-22.687 47.289-1.091 24.758 12.847 46.275 34.17 58.301zM707.484 226.743c-53.067 6.171-106.565 9.841-159.987 10.893 21.361-12.105 35.341-33.54 34.17-58.343-0.821-18.977-9.647-35.535-22.647-47.289 40.925-1.287 81.85-4.061 122.618-8.435-11.209 13.472-17.767 31.162-16.012 49.945 2.263 24.718 19.057 44.124 41.862 53.225zM804.092 154.465c-3.437-18.666-14.487-33.819-29.054-43.738 28.119-4.723 56.114-10.19 83.956-16.401 7.615 34.245 15.268 68.573 22.958 102.896-34.519 7.651-69.156 14.253-103.951 19.839 19.602-14.877 30.537-38.189 26.085-62.597zM245.993 217.058c-34.795-5.547-69.43-12.182-103.951-19.839 7.651-34.323 15.347-68.573 22.958-102.858 27.883 6.209 55.881 11.715 83.956 16.363-14.527 9.92-25.577 25.188-29.013 43.851-4.491 24.289 6.483 47.601 26.045 62.481zM816.391 304.921l16.283-16.91c12.301 11.871 23.469 23.588 33.229 34.989l-17.846 15.347c-9.255-10.855-19.915-22.063-31.669-33.427zM899.646 458.075v-0.394l23.547 0.394c0 16.91-2.693 33.582-8.083 49.594l-22.299-7.538c4.529-13.509 6.833-27.726 6.833-42.055zM891.172 411.841c-2.851-11.557-8.395-24.015-16.363-37.212l20.153-12.182c9.177 15.19 15.581 29.913 18.666 42.291l1.091 3.007-22.257 7.615-1.287-3.515zM175.9 338.269l-17.846-15.385c9.761-11.363 20.931-23.041 33.19-34.949l16.325 16.947c-11.715 11.403-22.373 22.609-31.669 33.386zM131.228 500.133l-22.299 7.538c-5.388-16.012-8.123-32.684-8.123-49.594v-0.394l23.547 0.394c0 14.331 2.305 28.546 6.871 42.055zM131.542 415.509l-21.591-9.374c3.477-13.824 9.878-28.506 19.057-43.696l20.153 12.182c-8.004 13.121-13.472 25.616-16.363 37.212l-1.25 3.67zM296.679 336.942c8.788-12.144 18.235-24.172 28.195-36.159l18.078 15.111c-9.607 11.52-18.742 23.196-27.258 34.873l-19.018-13.824zM398.094 667.654l6.054 22.726c-16.363 4.453-33.348 5.275-49.594 2.422l3.907-23.158c13.005 2.069 26.514 1.405 39.635-1.989zM271.18 375.329l20.19 12.066c-8.004 13.356-14.643 26.32-19.681 38.541l-21.748-9.099c5.508-13.239 12.653-27.258 21.243-41.508zM259.311 467.25c-3.71 15.19-5.627 28.583-6.012 42.094l-23.547-0.781c0.468-15.227 2.578-30.11 6.641-46.898l22.924 5.585zM462.835 619.935l19.134 13.706c-9.841 13.746-21.165 25.46-33.699 34.833l-14.097-18.822c10.582-7.968 20.228-17.883 28.66-29.715zM321.553 655.314l-14.915 18.314c-12.653-8.356-24.133-18.898-34.17-31.201l18.235-14.877c8.514 10.503 18.276 19.367 30.85 27.763zM268.955 591.895l-21.516 9.491c-6.365-14.331-11.090-29.637-14.059-45.493l23.116-4.334c2.657 14.019 6.833 27.569 12.46 40.339zM589.395 649.226l-14.253 18.742c-12.496-9.526-23.703-21.319-33.386-35.067l19.25-13.509c8.278 11.754 17.807 21.827 28.391 29.834zM765.004 468.306l22.726-5.781c3.942 15.227 6.092 31.005 6.56 47.055l-23.588 0.662c-0.351-14.331-2.305-28.391-5.701-41.939zM752.86 376.383c8.435 14.253 15.54 28.274 21.165 41.551l-21.712 9.058c-5.195-12.261-11.831-25.265-19.681-38.541l20.228-12.066zM790.422 556.831c-3.044 15.891-7.809 31.162-14.213 45.453l-21.516-9.647c5.662-12.576 9.878-26.122 12.613-40.22l23.116 4.413zM732.942 628.177l18.078 14.994c-9.956 12.029-21.243 22.221-33.623 30.46l-2.498 1.638-12.847-19.759 2.46-1.561c10.348-6.871 19.877-15.581 28.428-25.773zM664.88 669.685l3.749 23.235c-16.441 2.615-33.348 1.638-49.594-2.812l6.287-22.687c12.887 3.515 26.553 4.294 39.557 2.263zM727.556 337.955l-19.057 13.824c-8.473-11.754-17.535-23.469-27.063-35.026l18.157-14.994c9.878 11.988 19.213 24.133 27.961 36.198zM1000.119 469.827c0 86.612-48.967 166.43-127.888 208.411-31.162 16.441-65.914 25.81-101.296 28.274-6.756 5.819-13.824 11.363-21.165 16.283-66.659 43.813-152.177 37.373-214.189-11.481v59.201h60.255v47.055h-60.255v49.983h-47.093v-49.983h-60.293v-47.055h60.293v-59.043c-62.091 48.774-147.451 55.175-214.267 11.322-7.068-4.644-13.706-9.92-20.153-15.504-37.958-0.781-75.442-10.701-108.753-29.287-74.898-42.017-121.443-121.793-121.443-208.134 0-24.878 3.907-49.554 11.011-71.109 9.956-45.377 40.261-92.899 78.726-138.74-0.116 0-0.194-0.037-0.311-0.037 3.63-16.283 7.264-32.491 10.893-48.812 255.386 57.129 520.3 57.129 775.719 0 3.591 16.283 7.264 32.527 10.855 48.812-1.25 0.273-2.541 0.468-3.788 0.745 39.635 44.944 70.719 91.376 80.912 135.54 8.123 23.822 12.221 48.539 12.221 73.57zM535.588 643.563c47.21 62.871 126.755 80.323 188.337 39.833 50.764-33.507 82.199-97.861 82.199-167.952 0-20.423-2.693-40.573-8.514-61.776-9.526-51.233-45.453-107.7-89.309-160.417-46.587 5.037-93.369 7.693-140.188 9.099 8.823 11.715 14.487 25.851 14.487 41.587 0 30.654-19.681 56.507-47.055 66.267v233.358h0.037zM512 367.478c13.005 0 23.588-10.582 23.588-23.547s-10.582-23.547-23.588-23.547-23.547 10.582-23.547 23.588 10.543 23.508 23.547 23.508zM300.117 683.353c22.958 15.111 47.76 22.766 73.726 22.766 43.696 0 84.935-22.958 114.65-62.401v-233.477c-27.335-9.761-47.055-35.613-47.055-66.267 0-15.696 5.627-29.834 14.37-41.551-46.587-1.405-93.211-4.061-139.603-9.058-44.164 53.187-80.483 110.354-90.204 162.329-5.388 19.562-8.083 39.714-8.083 59.863-0.037 69.939 31.475 134.29 82.199 167.796zM80.23 410.942c-6.171 19.134-9.296 38.933-9.296 58.849 0 69.351 37.33 133.355 97.351 167.054 12.887 7.147 26.594 12.576 40.692 16.519-14.37-23.588-25.188-49.904-31.475-78.1l-10.034 13.005c-13.55-10.503-25.343-22.531-35.184-35.807l18.938-13.941c6.871 9.333 15.227 17.728 24.327 25.538-2.851-15.854-4.766-32.021-4.766-48.576 0-24.406 3.278-48.695 9.296-70.407 9.726-52.053 41.508-107.113 81.497-159.050-31.824-4.413-63.572-9.647-95.243-15.696-42.562 46.782-76.146 95.634-86.103 140.618zM942.677 409.107c-10.233-43.93-44.908-91.924-89.188-138.038-30.144 5.701-60.372 10.662-90.714 14.877 39.676 51.471 71.109 105.939 80.598 157.213 6.483 23.31 9.761 47.641 9.761 72.321 0 16.519-1.914 32.684-4.723 48.5 9.058-7.772 17.378-16.167 24.327-25.499l18.898 13.98c-9.761 13.276-21.671 25.306-35.146 35.807l-10.075-13.005c-5.937 27.023-16.244 52.251-29.6 75.014 11.363-3.63 22.531-7.968 33.348-13.669 63.457-33.74 102.896-97.626 102.896-166.781 0-19.877-3.278-39.557-10.387-60.723z" />
<glyph unicode="&#xe63c;" glyph-name="delivery23" d="M35.93 328.328v435.677c0 24.21 19.626 43.836 43.836 43.836h435.451c24.21 0 43.836-19.626 43.836-43.836v-435.677c0-8.069-6.542-14.612-14.612-14.612h-493.898c-8.070 0.001-14.612 6.543-14.612 14.612zM387.57 179.077c0-50.213-40.707-90.918-90.918-90.918s-90.918 40.705-90.918 90.918 40.707 90.918 90.918 90.918 90.918-40.704 90.918-90.918zM342.109 179.077c0 25.106-20.353 45.459-45.459 45.459s-45.46-20.353-45.46-45.459 20.353-45.46 45.46-45.46 45.459 20.355 45.459 45.46zM218.344 269.997h-203.731c-8.070 0-14.612-6.542-14.612-14.612v-44.332c0-8.070 6.542-14.612 14.612-14.612h163.301c4.264 29.254 19.028 55.095 40.43 73.556zM863.269 179.077c0-50.213-40.707-90.918-90.918-90.918s-90.918 40.705-90.918 90.918 40.707 90.918 90.918 90.918c50.212 0.001 90.918-40.704 90.918-90.918zM817.81 179.077c0 25.106-20.353 45.459-45.46 45.459s-45.459-20.353-45.459-45.459 20.353-45.46 45.459-45.46 45.46 20.355 45.46 45.46zM1024 255.384v-44.332c0-8.070-6.542-14.612-14.612-14.612h-118.303c-8.461 58.030-58.405 102.779-118.732 102.779-60.339 0-110.285-44.75-118.746-102.779h-238.217c-4.265 29.253-19.030 55.094-40.431 73.555h225.873v417.952c0 16.14 13.084 29.224 29.224 29.224h137.947c38.842 0 75.146-19.293 96.881-51.484l88.931-131.716c13.044-19.32 20.014-42.099 20.014-65.412v-198.563h35.561c8.069 0 14.611-6.542 14.611-14.612zM875.768 530.597l-71.113 101.050c-2.737 3.889-7.195 6.203-11.95 6.203h-110.926c-8.069 0-14.612-6.542-14.612-14.612v-101.050c0-8.070 6.542-14.612 14.612-14.612h182.040c11.837 0.001 18.762 13.341 11.949 23.022z" />
<glyph unicode="&#xe63d;" glyph-name="cart" d="M1011.415 570.051c0-25.651-36.864-46.633-81.92-46.633h-831.078c-45.056 0-81.92 20.982-81.92 46.633 0 25.641 36.864 46.633 81.92 46.633h831.078c45.066 0 81.92-20.992 81.92-46.633zM871.158 96.133c-8.356-55.695-61.266-101.274-117.586-101.274h-479.222c-56.32 0-109.23 45.568-117.586 101.274l-62.894 419.277c-8.356 55.695 30.894 101.263 87.214 101.263h665.743c56.32 0 95.57-45.568 87.214-101.263l-62.884-419.277zM463.421 870.267c18.135-18.135 6.902-59.044-24.955-90.9l-235.889-235.889c-31.857-31.857-72.765-43.090-90.911-24.945s-6.912 59.044 24.945 90.9l235.899 235.889c31.867 31.867 72.776 43.090 90.911 24.945zM916.244 518.533c18.145 18.135 6.922 59.044-24.945 90.9l-235.909 235.889c-31.857 31.857-72.755 43.090-90.89 24.945-18.135-18.135-6.902-59.044 24.965-90.9l235.868-235.889c31.857-31.867 72.765-43.090 90.911-24.945z" />
<glyph unicode="&#xe63e;" glyph-name="phone" d="M512 896c247 0 448-201 448-448s-201-448-448-448-448 201-448 448 201 448 448 448zM512 960c-282.75 0-512-229.25-512-512s229.25-512 512-512 512 229.25 512 512-229.25 512-512 512v0zM797.438 276.812l-2.876 8.75c-6.75 20.126-29 41.126-49.5 46.75l-75.686 20.688c-20.5 5.562-49.75-1.938-64.812-17l-27.376-27.376c-99.5 26.938-177.562 105-204.438 204.5l27.376 27.376c15 15 22.5 44.25 16.938 64.812l-20.626 75.688c-5.562 20.5-26.688 42.75-46.812 49.5l-8.626 2.876c-20.188 6.75-49-0.062-64-15.126l-41-41c-7.312-7.25-12-28.062-12-28.126-1.376-130.126 49.626-255.438 141.626-347.5 91.75-91.75 216.626-142.688 346.312-141.562 0.688 0 22.126 4.562 29.438 11.876l41 41c15 14.936 21.75 43.75 15.062 63.874z" />
<glyph unicode="&#xe63f;" glyph-name="my-parcel-box" horiz-adv-x="829" d="M419.621 474.49l-390.366 225.37v-501.012l100.518 58.044v268.864l289.841-167.339 289.848 167.339v-268.864l100.518-58.044v501.012zM419.621 941.541l-365.236-210.86 100.525-58.037 264.711 152.823 264.705-152.823 100.525 58.037zM684.366 226.077l-264.759-152.837-264.651 152.783-100.525-58.024 365.176-210.84 365.216 210.84z" />
<glyph unicode="&#xe640;" glyph-name="pencil41" d="M896 605.72v-541.72c0-70.688-57.312-128-128-128h-640c-70.688 0-128 57.312-128 128v640c0 70.688 57.312 128 128 128h541.688l-127.938-128h-413.75v-640h640v413.688l128 128.032zM797.75 869.5l-45.25-45.25 135.75-135.782 45.25 45.25-135.75 135.782zM888.25 960l-45.25-45.25 135.75-135.782 45.25 45.282-135.75 135.75zM300 371.624l135.75-135.75 407.25 407.314-135.75 135.782-407.25-407.346zM256 192h128l-128 128v-128z" />
<glyph unicode="&#xe641;" glyph-name="curved30" d="M313.5 245.678h499.050l-48.54-47.962c-24.277-23.989-24.511-63.114-0.524-87.391 12.088-12.236 28.020-18.365 43.961-18.363 15.688 0 31.388 5.939 43.429 17.838l154.761 152.915c11.658 11.52 18.263 27.198 18.362 43.587 0.097 16.389-6.317 32.146-17.837 43.804l-155.001 156.87c-23.985 24.277-63.111 24.511-87.388 0.524s-24.514-63.114-0.524-87.391l50.232-50.839h-499.982c-104.715 0-189.908 85.192-189.908 189.907v5.085c0 50.727 19.754 98.417 55.623 134.284 24.133 24.132 24.133 63.26 0.001 87.392-24.133 24.133-63.258 24.133-87.394 0.001-59.213-59.211-91.823-137.937-91.823-221.678v-5.085c0-83.739 32.609-162.466 91.822-221.678s137.94-91.821 221.678-91.821z" />
<glyph unicode="&#xe642;" glyph-name="been" d="M837.818 960h-651.636c-51.2 0-93.091-41.891-93.091-93.091v-600.436c0-32.582 13.964-60.507 41.891-79.127l377.018-251.345 377.018 251.345c23.273 18.618 41.891 46.545 41.891 79.127v600.436c0 51.2-41.891 93.091-93.091 93.091zM418.909 261.818l-232.727 232.727 65.164 65.164 167.564-167.564 353.745 353.745 65.164-65.164-418.909-418.909z" />
<glyph unicode="&#xe643;" glyph-name="weight11" d="M1021.38 102.122l-160.607 496.424c-7.101 21.947-27.539 36.815-50.606 36.815h-169.49c13.739 22.694 21.798 49.19 21.798 77.601 0 82.967-67.507 150.476-150.476 150.476-82.967 0-150.476-67.507-150.476-150.476 0-28.409 8.060-54.906 21.8-77.601h-169.487c-23.067 0-43.505-14.868-50.606-36.815l-160.607-496.424c-11.115-34.353 14.5-69.56 50.606-69.56h917.544c36.108-0.002 61.721 35.206 50.608 69.56zM432.443 712.963c0 43.873 35.684 79.557 79.557 79.557s79.557-35.684 79.557-79.557c0-37.99-26.796-69.742-62.456-77.601h-34.202c-35.661 7.857-62.457 39.611-62.457 77.601zM441.662 205.332l-45.971 88.271h-21.906v-88.271h-53.258v217.607h53.258v-84.008h21.906l45.054 84.008h57.22l-58.758-104.082v-0.619l62.103-112.906h-59.648zM721.768 205.332h-44.435v6.097c0 4.561 0.298 9.119 0.298 9.119h-0.594c0 0-21.015-18.859-57.22-18.859-55.708 0-106.834 41.683-106.834 112.906 0 63.292 47.778 111.989 114.144 111.989 55.684 0 83.689-28.898 83.689-28.898l-25.575-39.874c0 0-22.205 20.073-52.957 20.073-45.648 0-64.209-29.217-64.209-61.457 0-41.412 28.598-66.045 62.4-66.045 25.55 0 44.109 15.81 44.109 15.81v16.754h-30.728v45.35h77.913v-122.967z" />
<glyph unicode="&#xe644;" glyph-name="users33" d="M800.459 347.519c15.053-7.527 22.58-20.326 22.58-38.391v-171.602c0-11.288-3.387-21.075-10.161-29.354s-15.431-12.419-25.967-12.419h-554.337c-9.785 0-18.064 4.14-24.838 12.419s-10.161 18.066-10.161 29.354v171.602c0 18.066 7.527 30.863 22.58 38.391l216.767 100.481c-28.601 17.311-50.429 42.149-65.482 74.514-14.301 28.601-21.451 59.084-21.451 91.449 0 9.785 0.753 19.193 2.258 28.225s3.387 17.688 5.645 25.967c10.537 38.386 29.542 69.998 57.014 94.836s59.272 37.257 95.4 37.257c36.879 0 69.245-12.795 97.094-38.386s46.667-57.955 56.45-97.094c3.765-18.817 5.651-35.752 5.651-50.805 0-30.107-6.025-59.084-18.062-86.933-15.053-33.87-36.881-59.46-65.482-76.772l64.351-30.483 150.151-72.256zM197.574 394.939c-16.559-7.527-29.542-19.010-38.95-34.434-9.408-15.431-14.112-32.553-14.112-51.377v-145.635h-116.287c-8.279 0-15.053 3.195-20.322 9.591-5.269 6.403-7.903 14.492-7.903 24.273v137.741c0 16.564 6.021 27.098 18.064 31.614l174.994 81.288c-21.075 12.795-38.010 31.047-50.805 54.756s-19.193 50.24-19.193 79.594c0 20.322 3.387 39.703 10.161 58.143s15.994 34.434 27.66 47.982c11.666 13.548 25.214 24.273 40.644 32.176s32.176 11.854 50.24 11.854c12.043 0 23.333-1.882 33.87-5.645s20.698-8.656 30.483-14.677c-12.795-31.612-19.193-64.353-19.193-98.223 0-26.343 3.763-51.746 11.29-76.207s18.064-46.477 31.612-66.046c-8.279-9.032-16.935-16.182-25.967-21.451l-116.287-55.319zM1005.938 366.712c12.037-6.021 18.062-16.56 18.062-31.614v-137.738c0-9.783-2.638-17.872-7.901-24.273-5.27-6.396-12.044-9.591-20.329-9.591h-119.672v145.635c0 18.818-4.706 35.94-14.109 51.377-9.412 15.424-22.019 26.908-37.821 34.434l-111.771 53.057c-10.535 6.021-20.704 14.677-30.481 25.967 12.799 19.569 22.768 41.208 29.917 64.917 7.152 23.709 10.725 48.735 10.725 75.078 0 17.311-1.505 33.87-4.514 49.676-3.013 15.806-7.527 31.236-13.548 46.289 9.783 6.774 20.322 12.231 31.61 16.37 11.292 4.14 22.958 6.209 35.004 6.209 18.066 0 35.001-3.951 50.799-11.854 15.806-7.903 29.549-18.628 41.216-32.176 11.659-13.548 20.879-29.542 27.653-47.982 6.781-18.44 10.168-37.821 10.168-58.143 0-28.601-6.403-54.756-19.193-78.465-12.801-23.709-28.979-41.961-48.547-54.756l172.731-82.417z" />
<glyph unicode="&#xe645;" glyph-name="exclamation-mark" d="M512 960c-282.752 0-512-229.248-512-512s229.248-512 512-512 512 229.248 512 512-229.248 512-512 512zM512 129.024c-35.328 0-64 28.672-64 64 0 35.392 28.672 64 64 64s64-28.608 64-64c0-35.328-28.672-64-64-64zM576 384c0-35.328-28.672-64-64-64s-64 28.672-64 64v320c0 35.328 28.672 64 64 64s64-28.672 64-64v-320z" />
<glyph unicode="&#xe646;" glyph-name="pig1" d="M983.359 395.108h-64.167c-14.643 53.033-44.345 101.464-85.402 142.009 14.979 27.807 36.104 50.737 36.309 50.957 6.176 6.622 8.302 16.067 5.554 24.699s-9.936 15.109-18.809 16.944c-1.534 0.316-15.59 3.093-37.282 3.093-23.105 0-58.467-3.294-96.11-18.839-62.151 29.968-134.534 47.243-211.795 47.243-129.291 0-245.037-48.2-321.741-123.731-4.792 8.131-10.668 16.398-17.846 24.073 3.158 13.315 5.204 28.344 5.85 45.227 0.526 13.831-10.257 25.476-24.093 26.008-13.766 0.541-25.476-10.252-26.008-24.093-0.241-6.346-0.702-12.277-1.359-17.821-2.862 0.927-5.82 1.75-8.873 2.456-48.887 11.339-74.519-6.542-85.452-18.207-14.412-15.37-20.062-37.457-14.392-56.271 8.898-29.537 40.931-48.581 74.473-44.275 19.596 2.507 40.174 13.109 56.276 34.329 2.326-4.251 4.221-8.412 5.77-12.247-38.345-51.539-60.447-111.986-60.447-176.564 0-82.018 35.653-157.354 94.952-216.257l-32.364-137.016c-1.76-7.454-0.015-15.31 4.737-21.315 4.752-6.011 11.996-9.51 19.656-9.51h110.286c11.009 0 20.729 7.184 23.962 17.706l17.851 58.131c54.231-21.045 114.828-32.865 178.759-32.865s124.528 11.821 178.759 32.865l17.851-58.136c3.233-10.522 12.954-17.706 23.962-17.706h110.286c7.66 0 14.904 3.504 19.656 9.51s6.497 13.861 4.737 21.315l-32.364 137.016c31.011 30.805 55.459 66.132 71.817 104.532h77c13.841 0 25.065 11.224 25.065 25.065v136.605c-0.005 13.846-11.229 25.070-25.070 25.070zM85.863 524.303c-10.016-1.273-18.493 3.624-20.097 8.943-0.17 0.762-0.125 4.557 3.258 7.921 3.795 3.77 10.337 5.69 18.834 5.69 5.414 0 11.615-0.777 18.403-2.351 1.82-0.421 3.584-0.932 5.289-1.514-7.595-11.816-16.869-17.561-25.687-18.689zM627.746 522.388c-7.294-11.69-22.634-15.29-34.359-8.106-0.952 0.561-31.677 18.202-87.166 18.202-58.041 0-102.747-24.293-103.188-24.539-3.84-2.115-7.991-3.123-12.086-3.123-8.833 0-17.4 4.682-21.967 12.959-6.687 12.121-2.281 27.366 9.836 34.053 2.281 1.253 56.597 30.775 127.411 30.775 71.526 0 111.851-24.649 113.53-25.692 11.735-7.324 15.315-22.789 7.991-34.53zM769.053 332.34c-30.785 0-55.825 26.985-55.825 60.156s25.045 60.156 55.825 60.156 55.83-26.985 55.83-60.156-25.050-60.156-55.83-60.156zM624.091 843.031c0-64.498-52.471-116.969-116.969-116.969s-116.974 52.471-116.974 116.969c0 64.498 52.476 116.969 116.974 116.969s116.969-52.471 116.969-116.969z" />
</font>
</defs>
</svg>
