<?xml version="1.0" standalone="no"?>
<!DOCTYPE svg PUBLIC "-//W3C//DTD SVG 1.1//EN" "http://www.w3.org/Graphics/SVG/1.1/DTD/svg11.dtd" >
<svg xmlns="http://www.w3.org/2000/svg">
<metadata>Generated by IcoMoon</metadata>
<defs>
<font id="icomoon" horiz-adv-x="512">
<font-face units-per-em="512" ascent="480" descent="-32" />
<missing-glyph horiz-adv-x="512" />
<glyph unicode="&#x20;" d="" horiz-adv-x="256" />
<glyph unicode="&#xe600;" d="M368.615 40.499c6.861-6.938 6.861-18.125 0-25.063s-17.945-6.938-24.807 0l-200.448 202.419c-6.861 6.938-6.861 18.151 0 25.063l200.448 202.445c6.861 6.938 17.945 6.938 24.807 0s6.861-18.125 0-25.063l-182.784-189.901 182.784-189.901z" />
<glyph unicode="&#xe601;" d="M66.099 343.014c-6.938 6.861-18.151 6.861-25.063 0-6.912-6.835-6.912-17.946 0-24.807l202.445-200.448c6.938-6.861 18.125-6.861 25.063 0l202.445 200.448c6.912 6.861 6.938 17.945 0 24.806s-18.176 6.861-25.063 0.026l-189.927-182.81-189.901 182.784z" />
<glyph unicode="&#xe602;" d="M445.901 117.785c6.938-6.861 18.151-6.861 25.063 0 6.938 6.861 6.938 17.945 0 24.807l-202.445 200.448c-6.912 6.861-18.125 6.861-25.037 0l-202.445-200.448c-6.912-6.861-6.938-17.945 0-24.807s18.125-6.861 25.063 0l189.901 182.81 189.901-182.81z" />
<glyph unicode="&#xe603;" d="M143.352 40.499c-6.861-6.938-6.861-18.125 0-25.063s17.946-6.938 24.806 0l200.448 202.419c6.861 6.938 6.861 18.151 0 25.063l-200.448 202.445c-6.861 6.938-17.946 6.938-24.806 0s-6.861-18.125 0-25.063l182.784-189.901-182.784-189.901z" />
<glyph unicode="&#xe604;" d="M152 176c0-57.438 46.562-104 104-104s104 46.562 104 104-46.562 104-104 104-104-46.562-104-104zM480 352h-112c-8 32-16 64-48 64h-128c-32 0-40-32-48-64h-112c-17.6 0-32-14.4-32-32v-288c0-17.6 14.4-32 32-32h448c17.6 0 32 14.4 32 32v288c0 17.6-14.4 32-32 32zM256 34c-78.425 0-142 63.574-142 142s63.575 142 142 142c78.426 0 142-63.575 142-142s-63.573-142-142-142zM480 256h-64v32h64v-32z" />
<glyph unicode="&#xe605;" d="M256 480c-88.366 0-160-71.634-160-160 0-160 160-352 160-352s160 192 160 352c0 88.366-71.635 160-160 160zM256 222c-54.124 0-98 43.876-98 98s43.876 98 98 98 98-43.876 98-98-43.876-98-98-98zM194 320c0 34.241 27.758 62 62 62s62-27.759 62-62c0-34.241-27.759-62-62-62s-62 27.759-62 62z" />
<glyph unicode="&#xe606;" d="M256 480c-141.385 0-256-114.615-256-256s114.615-256 256-256 256 114.615 256 256-114.615 256-256 256zM256 16c-114.875 0-208 93.125-208 208s93.125 208 208 208 208-93.125 208-208-93.125-208-208-208zM304 272l-144 80h-32v-32l80-144 144-80h32v32l-80 144zM256 192c-17.673 0-32 14.327-32 32s14.327 32 32 32c17.673 0 32-14.327 32-32s-14.327-32-32-32z" />
<glyph unicode="&#xe607;" d="M496.131 44.302l-121.276 103.147c-12.537 11.283-25.945 16.463-36.776 15.963 28.628 33.534 45.921 77.039 45.921 124.588 0 106.039-85.961 192-192 192s-192-85.961-192-192 85.961-192 192-192c47.549 0 91.054 17.293 124.588 45.922-0.5-10.831 4.68-24.239 15.963-36.776l103.147-121.276c17.661-19.623 46.511-21.277 64.11-3.678s15.946 46.449-3.677 64.11zM192 160c-70.692 0-128 57.308-128 128s57.308 128 128 128 128-57.308 128-128-57.307-128-128-128zM224 384h-64v-64h-64v-64h64v-64h64v64h64v64h-64z" />
<glyph unicode="&#xe608;" d="M496.131 44.302l-121.276 103.147c-12.537 11.283-25.945 16.463-36.776 15.963 28.628 33.534 45.921 77.039 45.921 124.588 0 106.039-85.961 192-192 192s-192-85.961-192-192 85.961-192 192-192c47.549 0 91.054 17.293 124.588 45.922-0.5-10.831 4.68-24.239 15.963-36.776l103.147-121.276c17.661-19.623 46.511-21.277 64.11-3.678s15.946 46.449-3.677 64.11zM192 160c-70.692 0-128 57.308-128 128s57.308 128 128 128 128-57.308 128-128-57.307-128-128-128zM96 320h192v-64h-192z" />
<glyph unicode="&#xe609;" d="M432 128c-22.58 0-42.96-9.369-57.506-24.415l-215.502 107.751c0.657 4.126 1.008 8.353 1.008 12.664s-0.351 8.538-1.008 12.663l215.502 107.751c14.546-15.045 34.926-24.414 57.506-24.414 44.183 0 80 35.817 80 80s-35.817 80-80 80-80-35.817-80-80c0-4.311 0.352-8.538 1.008-12.663l-215.502-107.752c-14.546 15.045-34.926 24.415-57.506 24.415-44.183 0-80-35.818-80-80 0-44.184 35.817-80 80-80 22.58 0 42.96 9.369 57.506 24.414l215.502-107.751c-0.656-4.125-1.008-8.352-1.008-12.663 0-44.184 35.817-80 80-80s80 35.816 80 80c0 44.182-35.817 80-80 80z" />
<glyph unicode="&#xe60a;" d="M504.807 479.232c-17.408 17.434-34.048 0.947-90.496-26.163-151.040-72.627-414.31-220.135-414.31-220.135l226.176-32.333 32.333-226.202c0 0 147.533 263.271 220.135 414.311 27.161 56.473 43.597 73.062 26.163 90.521zM450.56 421.017l-164.301-305.075-16.666 138.65 180.966 166.425z" />
<glyph unicode="&#xe60b;" d="M148.48 174.080v158.72h-97.28c-28.16 0-51.2-23.040-51.2-51.2v-153.6c0-28.16 23.040-51.2 51.2-51.2h25.6v-76.8l76.8 76.8h128c28.16 0 51.2 23.040 51.2 51.2v46.592c-1.639-0.358-3.379-0.538-5.12-0.538h-179.2zM460.8 460.8h-230.4c-28.16 0-51.2-23.040-51.2-51.2v-204.8h179.2l76.8-76.8v76.8h25.6c28.16 0 51.2 23.040 51.2 51.2v153.6c0 28.16-23.040 51.2-51.2 51.2z" />
<glyph unicode="&#xe60c;" d="M302.055 455.705h-41.063v-334.643c-22.707 8.755-52.096 8.883-81.075-1.664-51.917-18.893-82.867-64.87-69.12-102.656 13.773-37.811 67.021-53.12 118.938-34.227 44.109 16.051 72.96 51.635 72.243 85.12l0.077 273.664c71.603-11.264 76.493-101.811 67.917-127.207-3.277-9.625 2.483-16.819 13.312 0 77.184 120.141-81.229 173.107-81.229 241.613z" />
<glyph unicode="&#xe60d;" d="M256 465.92c-130.073 0-235.52-105.447-235.52-235.52s105.447-235.52 235.52-235.52 235.52 105.447 235.52 235.52-105.447 235.52-235.52 235.52zM256 153.6c-42.419 0-76.8 34.406-76.8 76.8 0 42.419 34.381 76.8 76.8 76.8 42.394 0 76.8-34.407 76.8-76.8s-34.406-76.8-76.8-76.8z" />
<glyph unicode="&#xe60e;" d="M51.251 414.745v-60.621c181.401 0 328.448-147.072 328.448-328.474h60.647c0 214.887-174.208 389.095-389.094 389.095zM51.251 293.478v-60.647c114.432 0 207.206-92.749 207.206-207.181h60.595c0 147.891-119.885 267.827-267.801 267.827zM109.363 141.875c-32.077 0-58.112-26.035-58.112-58.137s26.035-58.112 58.112-58.112c32.102 0 58.137 26.010 58.137 58.112s-26.035 58.137-58.138 58.137z" />
<glyph unicode="&#xe60f;" d="M212.352 51.2c-11.136 0-21.683 5.197-28.441 14.157l-91.495 120.781c-11.904 15.719-8.806 38.093 6.912 49.997 15.744 11.929 38.093 8.806 49.997-6.912l60.185-79.463 151.347 242.97c10.419 16.717 32.435 21.837 49.178 11.418 16.717-10.394 21.837-32.435 11.392-49.152l-178.765-286.976c-6.221-10.010-16.947-16.281-28.697-16.793-0.537-0.026-1.075-0.026-1.613-0.026z" />
<glyph unicode="&#xe610;" d="M367.334 149.709l-70.605 80.691 70.605 80.691c12.007 12.007 12.007 31.463 0 43.443s-31.462 11.981-43.443 0l-67.891-77.593-67.865 77.568c-12.006 12.006-31.463 12.006-43.443 0s-11.981-31.463 0-43.443l70.579-80.666-70.605-80.691c-11.981-12.007-11.981-31.411 0-43.392 12.006-12.007 31.463-12.007 43.443 0l67.891 77.543 67.865-77.543c12.007-12.007 31.462-12.007 43.443 0s12.007 31.385 0.026 43.392z" />
<glyph unicode="&#xe611;" d="M409.6 256h-307.2c-14.131 0-25.6-11.469-25.6-25.6s11.469-25.6 25.6-25.6h307.2c14.157 0 25.6 11.469 25.6 25.6s-11.443 25.6-25.6 25.6zM102.4 307.2h307.2c14.157 0 25.6 11.469 25.6 25.6s-11.443 25.6-25.6 25.6h-307.2c-14.131 0-25.6-11.469-25.6-25.6s11.469-25.6 25.6-25.6zM409.6 153.6h-307.2c-14.131 0-25.6-11.443-25.6-25.6s11.469-25.6 25.6-25.6h307.2c14.157 0 25.6 11.443 25.6 25.6s-11.443 25.6-25.6 25.6z" />
<glyph unicode="&#xe612;" d="M491.52 376.499c-17.357-7.706-35.968-12.877-55.526-15.232 19.968 11.955 35.303 30.899 42.496 53.453-18.663-11.059-39.347-19.123-61.337-23.45-17.639 18.791-42.752 30.515-70.553 30.515-53.376 0-96.64-43.264-96.64-96.614 0-7.577 0.845-14.951 2.509-22.016-80.307 4.019-151.526 42.496-199.168 100.966-8.346-14.259-13.133-30.873-13.133-48.589 0-33.536 17.075-63.104 43.008-80.435-15.847 0.512-30.745 4.839-43.776 12.083 0-0.41 0-0.793 0-1.203 0-46.822 33.331-85.863 77.517-94.771-8.090-2.202-16.64-3.379-25.472-3.379-6.221 0-12.263 0.589-18.176 1.715 12.288-38.4 48-66.329 90.265-67.098-33.075-25.933-74.727-41.37-120.013-41.37-7.808 0-15.488 0.461-23.040 1.357 42.752-27.418 93.542-43.418 148.147-43.418 177.741 0 274.944 147.251 274.944 274.969 0 4.173-0.077 8.346-0.281 12.493 18.893 13.619 35.251 30.643 48.231 50.022z" />
<glyph unicode="&#xe613;" d="M384 380.697h-73.113c-8.653 0-18.304-11.366-18.304-26.598v-52.787h91.418v-75.264h-91.418v-226.048h-86.323v226.023h-78.259v75.29h78.259v44.288c0 63.514 44.083 115.2 104.601 115.2h73.139v-80.103z" />
<glyph unicode="&#xe614;" d="M50.944 343.322c0-38.221 12.775-65.843 37.939-82.048 20.608-13.286 44.544-15.283 56.986-15.283 3.021 0 5.427 0.128 7.117 0.231 0 0-3.942-25.677 15.104-51.097l-0.87 0.026c-32.999 0-140.647-6.912-140.647-95.411 0-90.035 98.867-94.592 118.681-94.592 1.561 0 2.458 0.026 2.458 0.026 0.231 0 1.638-0.051 4.045-0.051 12.723 0 45.619 1.587 76.186 16.461 39.629 19.226 59.75 52.711 59.75 99.456 0 45.184-30.618 72.064-52.992 91.725-13.645 11.981-25.446 22.323-25.446 32.384 0 10.24 8.601 17.946 19.507 27.699 17.613 15.769 34.253 38.221 34.253 80.665 0 37.325-4.839 62.362-34.662 78.234 3.123 1.587 14.106 2.739 19.559 3.507 16.154 2.202 39.782 4.711 39.782 17.895v2.534h-117.709c-1.178-0.026-119.040-4.403-119.040-112.358zM240.973 112.589c2.253-35.993-28.544-62.567-74.778-65.92-46.951-3.456-85.632 17.69-87.885 53.683-1.075 17.28 6.502 34.202 21.376 47.693 15.104 13.645 35.789 22.067 58.342 23.757 2.662 0.154 5.299 0.281 7.936 0.281 43.443 0 72.883-25.549 75.008-59.495zM210.227 367.975c11.546-40.627-5.888-83.098-33.664-90.931-3.2-0.896-6.502-1.357-9.831-1.357-25.472 0-50.688 25.754-60.032 61.235-5.222 19.942-4.813 37.35 1.177 54.118 5.888 16.461 16.461 27.623 29.773 31.36 3.2 0.922 6.528 1.357 9.856 1.357 30.72 0 50.483-12.749 62.72-55.782zM408.601 279.501v76.8h-48.64v-76.8h-76.8v-48.64h76.8v-76.8h48.64v76.8h76.8v48.64h-76.8z" />
<glyph unicode="&#xe615;" d="M129.946 408.32c0-27.213-20.096-49.254-53.145-49.254-31.104 0-51.2 22.041-51.2 49.255 0 27.853 20.761 49.254 52.505 49.254s51.2-21.401 51.84-49.254zM28.211 3.225v316.928h98.509v-316.928h-98.509zM185.677 219.059c0 39.527-1.305 72.576-2.611 101.095h85.555l4.557-44.083h1.945c12.954 20.762 44.723 51.2 97.869 51.2 64.793 0 113.408-43.417 113.408-136.755v-187.315h-98.509v175.642c0 40.832-14.285 68.711-49.92 68.711-27.213 0-43.392-18.79-50.534-36.941-2.611-6.477-3.251-15.539-3.251-24.627v-182.784h-98.509v215.859z" />
<glyph unicode="&#xe616;" d="M256 476.16c-135.731 0-245.76-110.029-245.76-245.76 0-62.055 22.989-118.733 60.928-161.946 38.451 38.451 91.111 60.032 151.552 58.087 77.107-2.509 137.984-39.014 172.877-98.406 64.128 44.339 106.163 118.375 106.163 202.266 0 135.731-110.029 245.76-245.76 245.76zM376.141 142.797c-4.327-7.168-13.594-9.37-20.736-5.043-56.935 34.765-128.512 42.624-212.839 23.373-8.089-1.869-16.231 3.2-18.048 11.366-1.869 8.064 3.174 16.205 11.315 18.048 92.288 21.094 171.443 11.981 235.29-26.983 7.117-4.352 9.395-13.645 5.017-20.762zM405.811 212.505c-5.453-8.909-17.101-11.673-25.959-6.195-65.126 40.013-164.403 51.61-241.434 28.237-10.010-3.021-20.557 2.637-23.552 12.57-3.021 10.010 2.611 20.557 12.57 23.552 87.987 26.752 197.376 13.798 272.179-32.153 8.883-5.53 11.673-17.101 6.195-26.010zM408.346 284.723c-78.080 46.413-206.874 50.637-281.421 28.032-11.981-3.661-24.627 3.098-28.263 15.079-3.609 11.981 3.149 24.679 15.079 28.262 85.607 25.984 227.84 20.966 317.721-32.409 10.777-6.4 14.336-20.301 7.962-31.079-6.425-10.726-20.301-14.259-31.079-7.885zM221.159 53.043c-34.585 1.101-63.36-12.365-84.377-37.581 35.303-19.635 75.955-30.822 119.219-30.822 20.864 0 41.113 2.611 60.467 7.501-18.534 38.067-50.867 59.469-95.309 60.902z" />
<glyph unicode="&#xe617;" d="M389.12 230.4c0-73.523-59.623-133.12-133.12-133.12-73.523 0-133.12 59.597-133.12 133.12 0 8.755 0.871 17.305 2.509 25.6h-89.549v-176.947c0-37.99 30.771-68.813 68.813-68.813h302.694c37.99 0 68.813 30.797 68.813 68.813v176.947h-89.523c1.613-8.294 2.483-16.845 2.483-25.6zM407.347 450.56h-302.695c-38.016 0-68.813-30.822-68.813-68.813v-74.547h111.462c24.089 34.048 63.795 56.32 108.697 56.32s84.608-22.272 108.697-56.32h111.463v74.547c0 37.99-30.822 68.813-68.813 68.813zM441.011 365.568c0-6.784-5.529-12.288-12.288-12.288h-36.839c-6.759 0-12.288 5.529-12.288 12.288v36.864c0 6.784 5.555 12.288 12.288 12.288h36.839c6.784 0 12.288-5.529 12.288-12.288v-36.864zM337.92 230.4c0 45.261-36.685 81.92-81.92 81.92s-81.92-36.659-81.92-81.92 36.685-81.92 81.92-81.92 81.92 36.659 81.92 81.92z" />
<glyph unicode="&#xe618;" d="M512 176l-96 96v144h-64v-80l-96 96-256-256v-16h64v-160h160v96h64v-96h160v160h64z" />
<glyph unicode="&#xe619;" d="M256 480c-88.366 0-160-71.634-160-160 0-160 160-352 160-352s160 192 160 352c0 88.366-71.635 160-160 160zM256 222c-54.124 0-98 43.876-98 98s43.876 98 98 98 98-43.876 98-98-43.876-98-98-98zM194 320c0 34.241 27.758 62 62 62s62-27.759 62-62c0-34.241-27.759-62-62-62s-62 27.759-62 62z" />
<glyph unicode="&#xe61a;" d="M112.5 256c61.856 0 112-50.145 112-112s-50.144-112-112-112-112 50.144-112 112l-0.5 16c0 123.712 100.288 224 224 224v-64c-42.737 0-82.917-16.643-113.137-46.863-5.817-5.818-11.126-12.008-15.915-18.51 5.719 0.9 11.58 1.373 17.552 1.373zM400.5 256c61.855 0 112-50.145 112-112s-50.145-112-112-112-112 50.144-112 112l-0.5 16c0 123.712 100.288 224 224 224v-64c-42.737 0-82.917-16.643-113.137-46.863-5.818-5.818-11.127-12.008-15.916-18.51 5.72 0.9 11.58 1.373 17.553 1.373z" />
<glyph unicode="&#xe61b;" d="M512 256h-50.462c-13.82 89.12-84.418 159.718-173.538 173.538v50.462h-64v-50.462c-89.12-13.82-159.718-84.418-173.538-173.538h-50.462v-64h50.462c13.82-89.12 84.418-159.718 173.538-173.538v-50.462h64v50.462c89.12 13.82 159.718 84.418 173.538 173.538h50.462v64zM396.411 256h-49.881c-9.642 27.275-31.255 48.889-58.53 58.53v49.881c53.757-12.245 96.166-54.655 108.411-108.411zM256 192c-17.673 0-32 14.327-32 32s14.327 32 32 32c17.673 0 32-14.327 32-32s-14.327-32-32-32zM224 364.411v-49.881c-27.275-9.641-48.889-31.255-58.53-58.53h-49.881c12.245 53.756 54.655 96.166 108.411 108.411zM115.589 192h49.881c9.641-27.275 31.255-48.889 58.53-58.53v-49.881c-53.756 12.245-96.166 54.654-108.411 108.411zM288 83.589v49.881c27.275 9.642 48.889 31.255 58.53 58.53h49.881c-12.245-53.757-54.654-96.166-108.411-108.411z" />
<glyph unicode="&#xe61c;" d="M448 224h-80l-112-112-112 112h-80l-64-128v-32h512v32l-64 128zM0 32h512v-32h-512v32zM288 320v128h-64v-128h-112l144-144 144 144h-112z" />
<glyph unicode="&#xe61d;" d="M256-32c141.385 0 256 114.615 256 256s-114.615 256-256 256-256-114.615-256-256 114.615-256 256-256zM256 432c114.875 0 208-93.125 208-208s-93.125-208-208-208-208 93.125-208 208 93.125 208 208 208zM128 320c0 17.673 14.327 32 32 32s32-14.327 32-32c0-17.673-14.327-32-32-32s-32 14.327-32 32zM320 320c0 17.673 14.327 32 32 32s32-14.327 32-32c0-17.673-14.327-32-32-32s-32 14.327-32 32zM352.049 166.37l41.164-24.698c-27.981-46.535-78.958-77.672-137.213-77.672s-109.232 31.137-137.213 77.672l41.164 24.698c19.587-32.574 55.271-54.37 96.049-54.37s76.462 21.796 96.049 54.37z" />
<glyph unicode="&#xe61e;" d="M256-32c141.385 0 256 114.615 256 256s-114.615 256-256 256-256-114.615-256-256 114.615-256 256-256zM256 432c114.875 0 208-93.125 208-208s-93.125-208-208-208-208 93.125-208 208 93.125 208 208 208zM128 320c0 17.673 14.327 32 32 32s32-14.327 32-32c0-17.673-14.327-32-32-32s-32 14.327-32 32zM320 320c0 17.673 14.327 32 32 32s32-14.327 32-32c0-17.673-14.327-32-32-32s-32 14.327-32 32zM159.951 89.63l-41.164 24.698c27.981 46.535 78.958 77.672 137.213 77.672s109.231-31.137 137.213-77.672l-41.164-24.698c-19.587 32.574-55.271 54.37-96.049 54.37-40.779 0-76.462-21.796-96.049-54.37z" />
<glyph unicode="&#xe61f;" d="M496 288h-176v176c0 8.836-7.164 16-16 16h-96c-8.836 0-16-7.164-16-16v-176h-176c-8.836 0-16-7.164-16-16v-96c0-8.836 7.164-16 16-16h176v-176c0-8.836 7.164-16 16-16h96c8.836 0 16 7.164 16 16v176h176c8.836 0 16 7.164 16 16v96c0 8.836-7.164 16-16 16z" />
<glyph unicode="&#xe620;" d="M440.317 414.613c12.849-6.288 24.047-15.243 32.251-26.241 17.268-23.15 22.118-54.686 14.418-93.733-7.78-39.513-25.208-72.867-50.583-97.022-4.641-4.851-9.611-9.373-14.902-13.54-27.178-21.401-61.499-32.714-99.254-32.714h-120.030l-32.282-151.363h-66.212l5.043 23.15h23.064l32.282 151.363h94.135c90.125 0 165.469 55.539 185.629 149.968 22.861 106.917-53.799 155.519-119.705 155.519h-224.639l-99.532-456.85h76.016l-12.016-55.15h131.83l32.282 151.363h94.135c90.125 0 165.469 55.539 185.629 149.968 16.858 78.84-20.402 125.966-67.559 145.282zM320.131 324.481c-6.862-29.53-32.214-54.020-60.328-60.684l15.369 68.011h46.493c-0.364-2.403-0.861-4.845-1.534-7.327zM211.172 386.959h64.566c18.38 0 33.254-9.002 40.935-23.15h-67.077l-23.008-101.815h-43.656l28.24 124.965z" />
<glyph unicode="&#xe621;" d="M337.353-20.060l56.947 56.947-187.113 187.113 187.113 187.113-56.947 56.947-244.060-244.060z" />
<glyph unicode="&#xe622;" d="M174.647 468.060l-56.947-56.947 187.113-187.113-187.113-187.113 56.947-56.947 244.060 244.060z" />
<glyph unicode="&#xe623;" d="M437.020 405.019c48.352-48.352 74.98-112.64 74.98-181.020s-26.629-132.667-74.98-181.019c-48.353-48.351-112.64-74.98-181.020-74.98s-132.667 26.629-181.020 74.98c-48.351 48.352-74.98 112.639-74.98 181.019s26.627 132.668 74.98 181.020 112.64 74.981 181.020 74.981 132.667-26.629 181.020-74.981zM414.392 65.607c31.529 31.529 52.493 70.804 61.137 113.531-6.737-9.918-13.182-13.598-17.172 8.603-4.11 36.195-37.354 13.073-58.259 25.93-22.002-14.829-71.453 28.831-63.049-20.412 12.967-22.211 70.004 29.726 41.574-17.271-18.137-32.809-66.321-105.466-60.053-143.129 0.791-54.872-56.067-11.442-75.657 6.76-13.178 36.46-4.491 100.188-38.949 118.043-37.401 1.624-69.502 5.023-83.997 46.835-8.723 29.914 9.282 74.447 41.339 81.322 46.925 29.483 63.687-34.527 107.695-35.717 13.664 14.297 50.908 18.843 53.996 34.875-28.875 5.095 36.634 24.279-2.764 35.191-21.735-2.556-35.739-22.537-24.185-39.479-42.119-9.821-43.468 60.952-83.955 38.629-1.029-35.295-66.111-11.443-22.518-4.286 14.978 6.544-24.43 25.508-3.14 22.062 10.458 0.568 45.666 12.906 36.138 21.201 19.605 12.17 36.080-29.145 55.269 0.941 13.854 23.133-5.81 27.404-23.175 15.678-9.79 10.962 17.285 34.638 41.166 44.869 7.959 3.41 15.561 5.268 21.373 4.742 12.029-13.896 34.275-16.303 35.439 1.671-29.79 14.267-62.637 21.804-96.645 21.804-48.811 0-95.235-15.512-133.654-44.195 10.325-4.73 16.186-10.619 6.239-18.148-7.728-23.027-39.085-53.938-66.612-49.562-14.293-24.648-23.706-51.803-27.73-80.264 23.056-7.628 28.372-22.725 23.418-27.775-11.748-10.244-18.968-24.765-22.688-40.662 7.505-45.918 29.086-88.237 62.635-121.787 42.308-42.307 98.559-65.607 158.392-65.607s116.084 23.3 158.392 65.607z" />
<glyph unicode="&#xe624;" d="M491.827 323.712c-27.008 62.961-72.874 108.827-135.841 135.841-31.704 13.599-64.7 20.447-99.428 20.447-34.734 0-67.981-6.913-99.714-20.447-63.493-27.080-109.621-72.772-136.678-135.841-13.558-31.603-20.166-64.7-20.166-99.434 0-34.728 6.609-68.105 20.166-99.709 27.056-63.068 73.184-109.042 136.678-136.122 31.734-13.534 64.981-20.448 99.714-20.448 34.728 0 67.724 6.848 99.428 20.447 62.967 27.014 108.833 73.161 135.841 136.122 13.599 31.704 20.447 64.981 20.447 99.709 0 34.734-6.848 67.73-20.447 99.434zM463.26 136.615c-11.885-27.678-27.731-51.817-47.892-71.983-19.892-19.885-43.978-35.851-71.703-47.892-27.731-12.046-56.579-17.925-87.107-17.925-40.613 0-78.461 10.021-113.159 30.247-34.483 20.106-61.957 47.581-82.064 82.064-20.226 34.698-30.247 72.546-30.247 113.153 0 40.613 10.080 78.144 30.247 112.597s47.581 61.957 82.064 82.064c34.698 20.226 72.546 30.252 113.159 30.252s78.144-10.086 112.591-30.252c34.453-20.166 61.796-47.676 81.789-82.064 20.059-34.513 30.247-71.983 30.247-112.597 0-30.527-5.999-59.884-17.925-87.663zM183.458 222.599l125.193 128.563c5.527 5.671 5.885 15.123-0.555 21.565-5.605 5.599-15.488 5.957-21.851-0.562l-135.841-139.199c-5.533-5.671-5.88-15.41 0.561-21.851l135.28-135.28c3.083-3.083 6.722-4.762 10.928-4.762 4.476 0 8.401 1.679 11.478 4.762 5.605 5.605 6.041 15.529 0 21.565l-125.193 125.199z" horiz-adv-x="513" />
<glyph unicode="&#xe625;" d="M20.672 124.288c27.008-62.961 72.874-108.827 135.841-135.841 31.704-13.599 64.7-20.447 99.428-20.447 34.734 0 67.981 6.913 99.714 20.447 63.493 27.080 109.622 72.772 136.678 135.841 13.558 31.603 20.166 64.7 20.166 99.434 0 34.728-6.608 68.106-20.166 99.709-27.056 63.069-73.185 109.042-136.678 136.122-31.735 13.534-64.981 20.447-99.714 20.447-34.728 0-67.724-6.847-99.428-20.447-62.967-27.014-108.833-73.161-135.841-136.122-13.6-31.704-20.448-64.981-20.448-99.709 0-34.734 6.848-67.73 20.448-99.434zM49.24 311.385c11.884 27.678 27.731 51.817 47.892 71.983 19.891 19.886 43.978 35.852 71.703 47.892 27.731 12.046 56.579 17.925 87.107 17.925 40.614 0 78.461-10.020 113.159-30.247 34.483-20.106 61.957-47.581 82.064-82.064 20.226-34.698 30.247-72.546 30.247-113.153 0-40.613-10.080-78.144-30.247-112.597s-47.581-61.957-82.064-82.064c-34.698-20.226-72.546-30.252-113.159-30.252s-78.144 10.086-112.591 30.252c-34.453 20.166-61.796 47.676-81.789 82.064-20.059 34.513-30.247 71.983-30.247 112.597 0 30.528 5.999 59.884 17.926 87.663zM329.043 225.401l-125.193-128.563c-5.527-5.671-5.886-15.123 0.555-21.565 5.605-5.599 15.488-5.957 21.851 0.562l135.841 139.199c5.533 5.671 5.88 15.41-0.562 21.851l-135.28 135.28c-3.083 3.083-6.722 4.762-10.929 4.762-4.476 0-8.401-1.679-11.478-4.762-5.605-5.605-6.041-15.53 0-21.565l125.193-125.199z" horiz-adv-x="513" />
<glyph unicode="&#xe626;" d="M101.944 274.815c-1.823 3.657-4.706 6.672-8.285 8.936-3.734 2.287-8.142 3.888-13.178 4.839-5.126 0.928-11.047 1.347-17.906 1.414l-31.671-0.022c-3.293-0.045-6.518-2.608-7.29-5.788l-21.309-92.815c-0.774-3.149 1.292-5.777 4.585-5.777h15.167c3.293 0 6.552 2.563 7.28 5.777l5.203 22.536c0.696 3.137 3.944 5.755 7.27 5.755h4.342c18.547 0.033 32.907 3.812 43.226 11.4 10.373 7.601 15.487 17.641 15.487 30.081-0.010 5.446-0.905 10.019-2.916 13.664zM69.234 244.492c-4.585-3.358-10.959-5.037-19.177-5.037h-3.701c-3.303 0-5.325 2.607-4.606 5.788l4.563 19.707c0.641 3.159 3.966 5.777 7.225 5.755l4.971 0.033c5.799 0 10.23-1.005 13.191-2.95 2.928-1.922 4.397-4.982 4.375-9.037 0.077-6.163-2.275-10.914-6.838-14.262zM277.731 256.599l-60.426-102.194c-1.945-3.192-6.242-5.767-9.512-5.767l-15.709-0.022c-3.259 0-4.33 2.596-2.341 5.777l13.433 23.408c0 0 1.083 1.358 0.121 8.981-2.066 13.819-12.383 72.534-12.383 72.534-0.739 3.182 1.271 5.788 4.541 5.788l13.587 0.022c4.165 0 7.512-2.74 8.263-5.943l6.761-40.73 2.518-0.033c2.11 3.745 23.828 41.017 23.828 41.017 2.077 3.149 6.274 5.788 9.545 5.788 0 0 14.592-0.045 18.183 0 5.401 0.111-0.409-8.627-0.409-8.627zM377.361 274.473c-1.901 3.679-4.739 6.65-8.351 8.969-3.678 2.298-8.065 3.911-13.178 4.839-5.026 0.894-11.025 1.381-17.841 1.391l-31.715-0.022c-3.303-0.055-6.485-2.619-7.236-5.767l-21.332-92.869c-0.774-3.149 1.348-5.755 4.574-5.755l15.19 0.022c3.225-0.022 6.539 2.575 7.291 5.734l5.137 22.546c0.752 3.149 4.010 5.788 7.291 5.755h4.341c18.558 0 32.963 3.822 43.325 11.389 10.23 7.655 15.41 17.674 15.41 30.125-0.045 5.435-0.983 10.019-2.905 13.643zM344.651 244.105c-4.574-3.292-10.959-4.971-19.133-4.971h-3.778c-3.259-0.033-5.379 2.619-4.64 5.778l4.596 19.674c0.663 3.149 3.977 5.788 7.247 5.755l4.926 0.033c5.833-0.033 10.207-0.993 13.19-2.939 2.961-1.944 4.375-4.993 4.418-9.037 0.022-6.175-2.276-10.914-6.827-14.294zM175.073 261.548c-5.722 3.225-14.758 4.839-27.109 4.839-6.109 0-12.196-0.475-18.349-1.425-4.54-0.696-4.982-0.828-7.776-1.437-5.767-1.26-6.672-7.014-6.672-7.014l-1.856-7.633c-1.049-4.871 1.757-4.684 2.928-4.275 2.519 0.751 3.922 1.524 9.070 2.673 4.916 1.117 10.096 1.955 14.207 1.9 6.065 0 10.704-0.641 13.797-1.945 3.048-1.326 4.573-3.601 4.573-6.893l-0.265-2.143-2.186-1.347c-8.605-0.541-14.825-1.337-22.369-2.43-7.38-1.027-13.853-2.827-19.233-5.291-5.778-2.541-10.064-5.954-13.058-10.295-2.894-4.363-4.341-9.654-4.341-15.863 0-5.844 2.099-10.659 6.175-14.394 4.098-3.668 9.511-5.457 15.984-5.457 4.098 0.022 7.269 0.342 9.522 0.884l7.346 2.529 6.22 3.457 5.722 3.767 0.077-0.099-0.574-2.43-0.033-0.089v-0.022c-0.619-2.961 1.171-5.401 4.054-5.678l0.055-0.066h14.085l0.198 0.089c3.027 0.353 5.865 2.784 6.528 5.678l11.058 47.855 0.574 3.899 0.265 3.657c0.055 6.761-2.883 11.786-8.617 15.002zM150.627 207.728l-2.363-3.126-5.965-3.082c-2.806-1.127-5.469-1.723-7.931-1.723-3.734 0-6.662 0.541-8.638 1.657l-2.928 5.678c0 3.094 0.707 5.523 2.221 7.401l6.429 4.375c2.75 0.928 6.109 1.712 9.998 2.254 3.469 0.43 10.318 1.214 11.213 1.237l1.049-1.845c-0.21-1.027-2.154-9.158-3.082-12.825zM529.32 295.163h5.071v-2.088h-5.071v-6.75l0.022-1.823 0.365-1.214 0.795-0.774 1.557-0.243 1.271 0.177 0.95 0.288h0.134v-2.221l-1.524-0.298-1.458-0.121-3.436 1.237-1.183 3.888v7.854h-1.701v2.088h1.701v4.208h2.507v-4.208zM450.545 261.481c-5.755 3.225-14.781 4.849-27.098 4.849-6.109 0-12.217-0.475-18.338-1.458-4.551-0.663-5.003-0.807-7.81-1.402-5.767-1.249-6.65-7.026-6.65-7.026l-1.856-7.622c-1.038-4.871 1.712-4.65 2.983-4.275 2.519 0.751 3.888 1.492 8.992 2.684 4.905 1.105 10.119 1.922 14.25 1.9 6.031 0 10.671-0.651 13.764-1.955 3.071-1.326 4.574-3.624 4.574-6.882l-0.231-2.132-2.176-1.381c-8.682-0.519-14.913-1.314-22.381-2.409-7.357-1.027-13.864-2.816-19.254-5.291-5.755-2.552-10.096-5.965-13.058-10.306-2.916-4.363-4.341-9.643-4.341-15.808 0-5.888 2.088-10.704 6.197-14.416 4.132-3.657 9.488-5.49 15.962-5.49 4.077 0.045 7.247 0.31 9.512 0.894l7.335 2.486 6.264 3.457 5.678 3.822 0.099-0.122-0.519-2.441-0.055-0.045 0.033-0.045c-0.685-2.961 1.104-5.413 4.031-5.678l0.022-0.055h0.265c1.911 0 8.517 0 11.665 0h2.143l0.221 0.077c2.993 0.365 5.833 2.795 6.451 5.711l11.102 47.798 0.574 3.922 0.32 3.667c0 6.75-2.883 11.753-8.671 14.968zM426.144 207.661l-2.452-3.149-5.921-3.071c-2.806-1.116-5.479-1.712-7.899-1.712-3.844 0-6.705 0.541-8.627 1.657l-2.961 5.667c0 3.094 0.728 5.512 2.176 7.413 1.469 1.812 3.712 3.281 6.495 4.363 2.717 0.928 6.077 1.679 9.986 2.243 3.447 0.442 10.274 1.237 11.157 1.248l1.060-1.856c-0.154-1.017-2.11-9.113-3.015-12.803zM507.425 283.144l0.033-0.010-20.304-92.019-0.728-1.104c-1.183-2.585-3.767-4.683-6.539-4.683h-14.106l-0.231 0.32c-2.695 0.409-4.452 2.563-3.812 5.391l-0.022 0.077 0.608 2.651 19 86.32 0.685 3.005 0.752 1.171c1.226 2.541 3.735 4.606 6.517 4.606h13.587c3.27 0.022 5.247-2.563 4.563-5.722zM557.798 294.091l1.159-4.12v-9.577h-2.464v8.429l-0.165 1.801-0.309 1.425-0.884 0.851-1.635 0.298-2.077-0.519-2.099-1.337 0.044-0.718 0.033-0.784v-9.434h-2.464v8.429l-0.111 1.823-0.365 1.414-0.839 0.851-1.679 0.298-2.043-0.508-2.066-1.281v-11.014h-2.452v14.747h2.464v-1.635l2.331 1.502 2.464 0.541 2.563-0.608 1.581-1.757 2.717 1.834 2.673 0.541 3.624-1.491z" horiz-adv-x="576" />
<glyph unicode="&#xe627;" d="M378.103 64.88h-304.159v304.161h237.399l68.267 68.267h-373.933v-440.695h440.692v282.186l-68.267-68.267zM148.736 277.293l-48.273-48.272 115.882-115.883 289.976 289.978-48.272 48.272-241.704-241.704z" />
<glyph unicode="&#xe628;" d="M255.427 178.483c-68.953 0-124.819 66.973-124.819 149.529 0 82.546 55.866 143.733 124.819 143.733 68.964 0 124.877-61.186 124.877-143.733 0-82.556-55.914-149.529-124.877-149.529zM61.266-23.658c0 0-26.477-1.748-38.137 14.32-6.301 8.68-1.913 26.272 2.398 36.089l10.554 24.049c0 0 29.185 65.274 62.41 103.101 20.409 23.195 44.681 17.913 60.381 10.369 9.67-4.641 20.602-18.166 28.593-25.331 11.010-9.874 30.447-21.098 62.225-21.728h19.496c31.759 0.631 51.197 11.854 62.197 21.728 7.981 7.166 18.613 21.108 28.195 25.904 14.408 7.214 36.341 11.651 56.216-10.942 33.234-37.827 59.555-104.285 59.555-104.285l10.815-23.584c4.476-9.748 9.058-27.253 2.933-36.050-10.933-15.728-35.477-13.642-35.477-13.642h-392.352z" />
<glyph unicode="&#xe629;" d="M337.647 411.57c-74.214 74.231-195.002 74.231-269.216 0-74.198-74.231-74.198-195.002 0-269.233 66.090-66.072 169.019-73.153 243.185-21.558 1.56-7.384 5.149-14.43 10.875-20.174l108.079-108.063c15.733-15.719 41.185-15.719 56.87 0 15.733 15.719 15.733 41.168 0 56.87l-108.079 108.095c-5.711 5.711-12.774 9.299-20.158 10.844 51.625 74.198 44.548 177.096-21.558 243.218zM303.524 176.461c-55.407-55.407-145.565-55.407-200.97 0-55.374 55.407-55.374 145.565 0 200.971 55.407 55.407 145.565 55.407 200.97 0s55.407-145.565 0-200.971z" />
<glyph unicode="&#xe62a;" d="M256 96l160 160h-96v192h-128l0.576-192h-96.576zM384 96v-64h-256v64h-64v-128h384v128z" />
<glyph unicode="&#xe62b;" d="M506.141 396.952h-500.283v-345.904h500.283v345.904zM472.861 84.328h-433.723v279.344h433.723v-279.344zM287.601 297.88h33.28v-136.053h-33.28v136.053zM215.463 214.582h22.577v-52.755h33.28v135.94h-89.137v-135.94h33.28v52.755zM215.463 264.488h22.577v-16.625h-22.577v16.625zM112.817 214.582h55.856v83.185h-89.136v-135.94h33.28v52.755zM112.817 264.488h22.576v-16.625h-22.576v16.625zM432.463 190.092v80.126l-32.274 27.551h-60.050v-135.226h60.050l32.274 27.55zM399.183 205.44l-11.267-9.618h-14.495v68.666h14.495l11.267-9.618v-49.43z" />
<glyph unicode="&#xe62c;" d="M407.501 285.066h-16.015v45.798c0 74.701-60.779 135.481-135.486 135.481s-135.486-60.78-135.486-135.481v-45.798h-16.016c-5.653 0-10.24-4.588-10.24-10.24v-282.931c0-5.652 4.588-10.24 10.24-10.24h303.001c5.652 0 10.24 4.587 10.24 10.24v282.931c0 5.652-4.582 10.24-10.24 10.24zM256 409.098c43.141 0 78.238-35.093 78.238-78.233v-45.798h-156.477v45.798c0 43.136 35.097 78.233 78.239 78.233z" />
<glyph unicode="&#xe62d;" d="M252.667 480h-215.436c-20.593 0-37.23-16.714-37.23-37.288v-437.425c0-20.554 16.638-37.269 37.23-37.269h215.417c20.593 0 37.268 16.714 37.268 37.269v437.425c0.019 20.573-16.657 37.288-37.25 37.288zM91.787 457.344h106.362c2.694 0 4.852-4.012 4.852-8.997 0-4.967-2.159-8.997-4.852-8.997h-106.362c-2.694 0-4.833 4.030-4.833 8.997 0 4.986 2.139 8.997 4.833 8.997zM144.968 4.829c-13.124 0-23.802 10.659-23.802 23.801s10.697 23.764 23.802 23.764c13.104 0 23.782-10.64 23.782-23.764 0-13.142-10.697-23.801-23.782-23.801zM262.007 86.358h-234.080v330.719h234.080v-330.719z" horiz-adv-x="290" />
<glyph unicode="&#xe62e;" d="M253.446 402.017c-139.98 0-253.446-87.264-253.446-194.959 0-52.795 27.333-100.793 71.706-135.886-2.573-35.794-11.191-79.582-36.145-103.172 49.675 0 100.442 31.115 132.533 55.446 26.671-7.33 55.368-11.346 85.353-11.346 139.98 0 253.446 87.225 253.446 194.958 0 107.695-113.466 194.958-253.446 194.958zM590.335 188.069c21.328 28.503 33.533 61.646 33.533 96.973 0 107.695-113.466 194.958-253.446 194.958-61.607 0-118.067-16.923-161.971-44.996 20.666 3.899 42.267 6.004 64.493 6.004 150.742 0 272.942-96.036 272.942-214.454 0-46.673-18.911-89.915-51.157-125.047 32.012-24.331 82.858-55.524 132.533-55.524-35.327 33.533-37.861 107.851-36.925 142.086z" horiz-adv-x="628" />
<glyph unicode="&#xe62f;" d="M64 400v64c0 8.844 7.156 16 16 16s16-7.156 16-16v-64c0-8.844-7.156-16-16-16s-16 7.156-16 16zM336 384c8.844 0 16 7.156 16 16v64c0 8.844-7.156 16-16 16s-16-7.156-16-16v-64c0-8.844 7.156-16 16-16zM512 96c0-70.688-57.313-128-128-128s-128 57.313-128 128 57.313 128 128 128 128-57.313 128-128zM480 96c0 52.938-43.063 96-96 96s-96-43.063-96-96 43.063-96 96-96 96 43.062 96 96zM128 288h-64v-64h64v64zM64 128h64v64h-64v-64zM160 224h64v64h-64v-64zM160 128h64v64h-64v-64zM32 99.187v220.813h352v-64h32v124.812c0 19.438-15.5 35.188-34.656 35.188h-13.344v-16c0-17.625-14.344-32-32-32s-32 14.375-32 32v16h-192v-16c0-17.625-14.344-32-32-32s-32 14.375-32 32v16h-13.328c-19.156 0-34.672-15.75-34.672-35.188v-281.625c0-19.375 15.516-35.187 34.672-35.187h189.328v32h-189.328c-1.453 0-2.672 1.5-2.672 3.187zM320 224v64h-64v-64h64zM432 96h-48v48c0 8.844-7.156 16-16 16s-16-7.156-16-16v-64c0-8.844 7.156-16 16-16h64c8.844 0 16 7.156 16 16s-7.156 16-16 16z" />
<glyph unicode="&#xe630;" d="M409.011 374.146c-66.435 19.238-127.588 53.551-178.626 100.3-4.049 3.697-9.203 5.553-14.34 5.553-5.106 0-10.243-1.841-14.292-5.553-51.038-46.749-112.175-81.063-178.642-100.3-13.668-3.953-23.11-16.485-23.11-30.728v-55.328c3.745-139.608 87.993-264.411 216.061-320.090 128.068 55.68 212.315 180.483 216.061 320.090v55.327c0 14.244-9.426 26.76-23.111 30.728zM384.108 288.762c-3.265-113.088-68.468-215.901-168.048-267.611-99.58 51.711-164.782 154.507-168.048 267.611v42.764c61.169 19.365 118.657 50.767 168.048 91.722 49.39-40.971 106.878-72.356 168.048-91.722v-42.764z" horiz-adv-x="432" />
<glyph unicode="&#xe631;" d="M410.262 448.502h-308.524c-49.809 0-90.332-40.52-90.332-90.331v-187.839c0-49.811 40.523-90.332 90.332-90.332h212.984l76.981-76.97c2.303-2.305 5.383-3.528 8.518-3.528 1.55 0 3.117 0.296 4.604 0.917 4.503 1.858 7.437 6.26 7.437 11.127v68.478c48.888 1.070 88.33 41.168 88.33 90.31v187.839c0 49.811-40.522 90.332-90.331 90.332zM476.504 170.33c0-36.52-29.716-66.245-66.245-66.245h-10.046c-6.651 0-12.043-5.387-12.043-12.043v-51.425l-59.946 59.942c-2.257 2.258-5.322 3.526-8.514 3.526h-217.974c-36.526 0-66.245 29.723-66.245 66.245v187.839c0 36.531 29.718 66.245 66.245 66.245h308.522c36.528 0 66.245-29.712 66.245-66.245v-187.839zM143.083 290.467c-14.968 0-27.099-12.138-27.099-27.099 0-14.973 12.132-27.1 27.099-27.1 14.96 0 27.1 12.127 27.1 27.1 0 14.962-12.139 27.099-27.1 27.099zM255.999 290.467c-14.968 0-27.1-12.138-27.1-27.099 0-14.973 12.133-27.1 27.1-27.1 14.96 0 27.1 12.127 27.1 27.1-0.001 14.962-12.139 27.099-27.1 27.099zM368.914 290.467c-14.967 0-27.101-12.138-27.101-27.099 0-14.973 12.134-27.1 27.101-27.1 14.961 0 27.096 12.127 27.096 27.1 0 14.962-12.135 27.099-27.096 27.099z" />
<glyph unicode="&#xe632;" d="M32.461 378.595v-314.136h473.904v314.136h-473.904zM269.416 184.603l-194.377 170.69h388.748l-194.371-170.69zM191.984 221.582l-136.221-119.625v239.25l136.221-119.625zM209.641 206.075l59.768-52.487 59.769 52.487 134.731-118.314h-388.993l134.725 118.314zM346.836 221.577l136.227 119.631v-239.25l-136.227 119.619z" horiz-adv-x="544" />
<glyph unicode="&#xe633;" d="M466.772 328.494h-421.416c-16.111 0-29.215-13.078-29.215-29.189v-167.281c0-3.493 2.855-6.373 6.399-6.373h68.498c3.517 0 6.373 2.88 6.373 6.373v95.137h317.279v-95.137c0-3.493 2.83-6.373 6.373-6.373h68.421c3.543 0 6.425 2.88 6.425 6.373v167.281c-0.026 16.111-13.078 29.189-29.138 29.189zM87.138 256.962c-10.605 0-19.197 8.591-19.197 19.197s8.591 19.197 19.197 19.197c10.605 0 19.197-8.591 19.197-19.197s-8.591-19.197-19.197-19.197zM429.527 267.082h-100.822v26.13h100.822v-26.13zM356.975 30.768h-146.862l-55.344-0.357v176.255h-33.141v-179.543c0 0-1.223-27.531 27.072-27.531 28.322 0 218.241 0 218.241 0 20.853 0 23.555 15.882 23.555 35.562v171.513h-33.115l-0.408-175.898zM171.085 158.969h166.899v-28.832h-166.899v28.832zM172.614 93.707h166.924v-28.832h-166.924v28.832zM152.195 416.417h204.73v-69.748h31.967v73.418c0 15.627-12.696 28.322-28.322 28.322h-212.020c-15.627 0-28.322-12.721-28.322-28.322v-73.418h31.993v69.748z" />
<glyph unicode="&#xe634;" d="M256 470.4c-136.079 0-246.4-110.315-246.4-246.4s110.32-246.4 246.4-246.4c136.084 0 246.4 110.315 246.4 246.4s-110.315 246.4-246.4 246.4zM292.183 59.464c0-4.245-3.435-7.68-7.68-7.68h-57.006c-4.244 0-7.68 3.435-7.68 7.68v217.252c0 4.245 3.435 7.68 7.68 7.68h57.011c4.245 0 7.68-3.435 7.68-7.68v-217.252zM256 306.621c-24.704 0-44.8 20.096-44.8 44.8s20.096 44.8 44.8 44.8 44.8-20.096 44.8-44.8-20.096-44.8-44.8-44.8z" />
<glyph unicode="&#xe635;" d="M256 466.726c-133.499 0-242.726-109.226-242.726-242.726s109.227-242.726 242.726-242.726c133.499 0 242.726 109.226 242.726 242.726s-109.226 242.726-242.726 242.726zM280.272 54.091h-48.545v48.545h48.545v-48.545zM331.245 240.991l-21.846-21.845c-19.418-16.991-29.127-31.555-29.127-67.963h-48.545v12.136c0 26.7 9.709 50.973 29.127 67.963l29.127 31.554c9.709 7.281 14.563 19.418 14.563 33.981 0 26.7-21.846 48.545-48.545 48.545s-48.545-21.846-48.545-48.545h-48.545c0 53.4 43.69 97.091 97.091 97.091s97.091-43.691 97.091-97.091c0-21.846-9.709-41.263-21.846-55.827z" />
<glyph unicode="&#xe636;" d="M514.813 340.916c0 0.213-1.244 0.412-1.269 0.619-0.038 0.332-0.644 0.663-0.731 0.982-0.069 0.25-0.487 0.475-0.587 0.713-0.112 0.262-0.344 0.531-0.488 0.775-0.137 0.244-0.413 0.45-0.587 0.669-0.156 0.207-0.344 0.419-0.525 0.607-0.212 0.207-0.481 0.369-0.719 0.544-0.169 0.131-0.332 0.281-0.519 0.394-0.038 0.019-0.082 0.025-0.113 0.050-0.057 0.025-0.1 0.075-0.15 0.1l-146.373 77.027-17.171 9.283c-0.5 0.269-1.038 0.457-1.575 0.582l-87.454 46.017c-1.838 0.975-4.038 0.962-5.863-0.025l-247.489-132.902c-0.038-0.019-0.069-0.050-0.107-0.075-0.031-0.013-0.063-0.019-0.094-0.038-0.194-0.119-0.357-0.281-0.538-0.419-0.237-0.175-0.488-0.332-0.694-0.538-0.175-0.175-0.313-0.387-0.462-0.582-0.181-0.231-0.387-0.444-0.537-0.7-0.125-0.225-0.207-0.469-0.306-0.707-0.112-0.262-0.25-0.512-0.332-0.787-0.075-0.288 1.087-0.588 1.050-0.888-0.032-0.237 1.075-0.462 1.075-0.707 0-0.012 0-0.025 0-0.044 0-0.012 0-0.025 0-0.038v-222.255h-2.256c0.006-6.25 1.044-6.513 3.063-7.657l247.502-141.553c0.963-0.544 2.025-1.369 3.088-1.369 1.050 0 2.094-0.019 3.038 0.507l252.553 142.528c2.050 1.144 3.119 1.294 3.125 7.545h2.444v222.262c0 0.012 0 0.025 0 0.038s0 0.025 0 0.044zM14.758 330.102l75.008-44.317v-81.671l21.215 5.863 17.37-28.909 28.222 7.032 26.778-37.117 0.969 81.14 61.713-35.397v-212.292l-231.275 133.352v212.317zM258.534 196.712l243.777 133.496v-212.392l-243.777-133.496v212.392zM253.684 207.558l-61.713 35.023 236.957 131.864 64.157-33.753-239.401-133.134zM253.672 466.668l75.477-39.717-235.544-128.546-74.52 42.286 234.589 125.976z" horiz-adv-x="515" />
<glyph unicode="&#xe637;" d="M392.028 157.079l43.464-189.064-166.334 99.795-166.334-99.819 43.483 189.064-146.306 127.403 193.231 17.024 75.927 178.524 75.927-178.524 193.231-17.024-146.287-127.379z" horiz-adv-x="539" />
<glyph unicode="&#xe638;" d="M395.008 317.408c-4.624 1.824-9.648 2.336-14.528 1.456l-22.416-3.984c-6.080-1.072-10.48-6.384-10.448-12.576l1.728-192.16c0 0 0.352-4.704-3.616-12.736l80.992-41.664-165.776-0.752c-6.144 0-11.12-5.008-11.12-11.152v-15.408c0-6.192 5.008-11.168 11.184-11.168h214.112c5.056 0 10.032 1.552 14.208 4.416l15.472 10.688c4.512 3.104 7.2 8.24 7.2 13.68v209.264c0 9.632-5.888 18.288-14.848 21.824l-102.144 40.272zM466.592 74.72c0-3.344-1.712-6.464-4.56-8.288-2.832-1.776-6.368-2-9.424-0.56l-80.384 38.128c-3.392 1.6-5.568 4.992-5.6 8.72l-1.856 160.976c-0.032 3.296 1.584 6.368 4.304 8.224 2.72 1.84 6.208 2.192 9.248 0.944l82.272-34.096c3.664-1.52 6.032-5.072 6.032-9.040l-0.032-165.008zM278.8 357.136c0-47.426-38.446-85.872-85.872-85.872s-85.872 38.446-85.872 85.872c0 47.426 38.446 85.872 85.872 85.872s85.872-38.446 85.872-85.872zM335.008 131.744c-6.352 17.712-23.664 27.248-43.648 20.592-36.48-12.128-85.008-24.064-111.808-3.376-15.008 11.6-28.384 35.552-24 49.856 21.232 51.040-32.368 114.912-75.488 114.688-38.368-0.16-80.064-46.176-80.064-46.176v-299.328l52.928-0.4c10.048 57.888 25.584 100.352 39.904 129.664-34.16 65.728-23.2 118.992-23.136 120.256 0 0 10.432-91.616 88.16-134.896 17.568-9.776 38.768-13.36 62.144-13.36 27.824 0.016 59.344 6.304 94.4 18.848 17.728 6.352 26.944 25.888 20.608 43.632zM349.056 362.736c-3.664-2.928-4.256-8.24-1.344-11.92 1.68-2.128 4.192-3.248 6.688-3.248 1.872 0 3.696 0.608 5.28 1.824 1.024 0.784 25.616 19.456 59.312 1.792 4.176-2.208 9.344-0.576 11.536 3.6 2.176 4.176 0.56 9.328-3.632 11.52-43.808 22.944-76.464-2.464-77.84-3.568zM449.344 392c2.192 4.176 0.576 9.328-3.6 11.52-72.384 37.936-125.84-3.696-128.064-5.488-3.664-2.944-4.304-8.32-1.344-11.984 1.664-2.112 4.176-3.2 6.688-3.2 1.84 0 3.728 0.608 5.312 1.872 0.448 0.384 46.864 36.544 109.472 3.696 4.192-2.192 9.344-0.576 11.536 3.584zM297.744 420.672c1.872 0 3.728 0.608 5.312 1.84 2.784 2.224 69.152 53.344 160.032 5.664 4.176-2.16 9.312-0.576 11.52 3.6 2.192 4.16 0.576 9.328-3.584 11.52-101.056 52.992-175.472-4.944-178.624-7.44-3.664-2.928-4.272-8.288-1.344-11.968 1.696-2.112 4.192-3.216 6.688-3.216z" />
<glyph unicode="&#xe639;" d="M302.551 41.647c0.589-0.041 1.166-0.089 1.764-0.089h134.095c15.685 0 28.445 12.764 28.445 28.445v310.857c0 15.681-12.76 28.445-28.445 28.445h-134.095c-0.594 0-1.175-0.053-1.764-0.089v37.108l-261.721-34.93v-372.159l261.721-35.832v38.245zM302.551 173.263h43.398v-16.258h-43.398v16.258zM302.551 175.295v16.563h43.398v-16.563h-43.398zM302.551 193.889v18.997h43.398v-18.997h-43.398zM302.551 214.918v21.264h43.398v-21.264h-43.398zM302.551 237.917v20.256h43.398v-20.256h-43.398zM302.551 259.913v20.256h43.398v-20.256h-43.398zM304.315 393.046h134.095c6.721 0 12.19-5.469 12.19-12.19v-310.857c0-6.721-5.469-12.19-12.19-12.19h-134.095c-0.601 0-1.183 0.089-1.764 0.179v97.284l143.913 0.004v128.663h-0.086v19.964l-143.827-0.004v88.97c0.581 0.090 1.158 0.179 1.764 0.179zM444.433 280.173v-122.863h-18.969v116.931h-13.024v-116.931h-10.849v104.92h-13.024v-104.92h-9.558v93.054h-13.024v-93.054h-18.302v122.863h96.748zM396.601 281.905v20.257h48.038v-18.225h-0.207v-2.032h-47.832zM394.861 281.905h-48.043v20.257h48.038v-20.257zM106.963 203.256c5.388-0.094 11.415 1.065 14.978 2.515l2.731-15.060c-3.324-1.687-10.784-3.373-20.391-3.116-26.681 0.711-40.078 18.7-40.078 42.049 0 27.969 18.371 44.016 41.826 44.633 9.269 0.248 16.38-1.585 19.602-3.271l-3.689-15.331c-3.681 1.581-8.761 2.999-15.096 2.893-14.007-0.236-24.73-9.391-24.73-27.839 0-16.599 9.111-27.205 24.849-27.474zM156.932 186.189c-9.5 0.256-18.769 3.048-23.365 5.827l3.746 15.941c4.986-2.747 12.707-5.563 20.732-5.697 8.737-0.151 13.398 3.535 13.398 9.24 0 5.457-4.023 8.59-14.141 12.394-13.78 5.038-22.65 12.922-22.65 25.364 0 14.604 11.683 26.092 31.382 26.607 9.586 0.256 16.713-1.645 21.85-3.88l-4.364-16.177c-3.454 1.645-9.549 4.019-17.859 3.88-8.228-0.134-12.191-4.055-12.191-8.549 0-5.523 4.697-7.924 15.579-12.125 15.112-5.685 22.316-13.812 22.316-26.295-0.004-14.844-11.179-27.152-34.434-26.531zM250.132 185.060l-24.255 0.626-28.554 89.555 22 0.565 11-37.993c3.121-10.752 5.97-21.134 8.143-32.483l0.415-0.004c2.316 10.911 5.197 21.711 8.358 32.147l11.922 39.351 22.889 0.581-31.918-92.343z" />
<glyph unicode="&#xe63a;" d="M318.615 149.33c0.832-3.502 1.385-7.036 1.385-10.661 0-11.332 0-10.007 0-21.339 0-47.127-71.639-85.33-160-85.33s-160 38.204-160 85.331c0 11.332 0 10.007 0 21.339 0 3.625 0.553 7.159 1.385 10.661 9.856-42.089 77.033-74.661 158.615-74.661s148.759 32.572 158.615 74.661zM160 10.67c-81.582 0-148.759 32.572-158.615 74.661-0.832-3.502-1.385-7.036-1.385-10.661 0-11.332 0-10.007 0-21.339 0-47.127 71.639-85.331 160-85.331s160 38.204 160 85.331c0 11.332 0 10.007 0 21.339 0 3.625-0.553 7.159-1.385 10.661-9.856-42.089-77.033-74.661-158.615-74.661zM160 266.665c-88.361 0-160-38.208-160-85.335s71.639-85.33 160-85.33 160 38.204 160 85.331c0 47.132-71.639 85.335-160 85.335zM352 96c-3.607 0-7.127 0.151-10.669 0.26 0-22.829 0-41.426 0-42.642 3.543-0.105 7.063-0.284 10.669-0.284 88.361 0 160 38.204 160 85.339 0 11.332 0 10.002 0 21.331 0 3.625-0.553 7.168-1.385 10.669-9.856-42.099-77.033-74.674-158.615-74.674zM352 309.335c88.365 0 160 38.203 160 85.335 0 47.127-71.635 85.33-160 85.33s-160-38.203-160-85.335c0-47.127 71.635-85.33 160-85.33zM352 288c-81.582 0-148.759 32.576-158.615 74.665-0.832-3.497-1.385-7.040-1.385-10.665 0-11.328 0-10.002 0-21.335 0-18.112 10.665-34.88 28.713-48.704 31.186-6.336 58.304-17.363 78.848-31.849 16.448-3.049 34.043-4.777 52.439-4.777 88.361 0 160 38.208 160 85.335 0 11.328 0 10.002 0 21.335 0 3.625-0.553 7.168-1.385 10.665-9.856-42.094-77.033-74.67-158.615-74.67zM352 224c-8.983 0-17.728 0.448-26.304 1.216 9.92-13.248 15.552-27.95 15.616-43.611 3.534-0.101 7.081-0.284 10.688-0.284 88.361 0 160 38.208 160 85.335 0 11.328 0 10.002 0 21.335 0 3.625-0.553 7.168-1.385 10.665-9.856-42.080-77.033-74.656-158.615-74.656zM352 160c-3.607 0-7.127 0.151-10.669 0.26 0-11.868 0-27.177 0-42.642 3.543-0.105 7.063-0.284 10.669-0.284 88.361 0 160 38.204 160 85.339 0 11.332 0 10.002 0 21.331 0 3.625-0.553 7.168-1.385 10.665-9.856-42.094-77.033-74.669-158.615-74.669z" />
<glyph unicode="&#xe63b;" d="M77.034 38.671c1.815-8.122 3.632-16.284 5.447-24.445 114.26 25.558 232.736 25.558 346.995 0 1.835 8.163 3.671 16.322 5.467 24.445-117.832 26.339-240.059 26.339-357.911 0zM238.232 118.821c-26.71-0.527-53.381-2.361-79.954-5.447 11.383-4.55 19.798-14.233 20.931-26.572 0.88-9.411-2.362-18.275-8.024-24.973 20.346 2.187 40.826 3.592 61.309 4.197-6.502 5.877-10.935 14.195-11.344 23.644-0.546 12.379 6.423 23.137 17.085 29.151zM353.742 113.372c-26.534 3.086-53.282 4.921-79.993 5.447 10.68-6.053 17.671-16.77 17.085-29.171-0.411-9.488-4.824-17.767-11.324-23.644 20.462-0.644 40.925-2.031 61.309-4.217-5.604 6.736-8.884 15.581-8.006 24.973 1.132 12.359 9.529 22.062 20.931 26.613zM402.046 77.233c-1.719-9.333-7.243-16.909-14.527-21.869 14.060-2.361 28.057-5.095 41.978-8.2 3.808 17.123 7.634 34.286 11.479 51.448-17.26 3.825-34.578 7.127-51.976 9.92 9.801-7.438 15.269-19.094 13.043-31.298zM122.996 108.529c-17.398-2.774-34.715-6.091-51.975-9.919 3.826-17.161 7.674-34.286 11.479-51.429 13.942 3.104 27.941 5.858 41.978 8.182-7.263 4.96-12.788 12.594-14.507 21.925-2.246 12.144 3.242 23.8 13.022 31.24zM408.195 152.461l8.142-8.455c6.151 5.935 11.735 11.794 16.615 17.495l-8.923 7.673c-4.627-5.428-9.957-11.031-15.834-16.714zM449.823 229.037v-0.197l11.774 0.197c0 8.455-1.346 16.791-4.041 24.797l-11.149-3.769c2.264-6.755 3.416-13.863 3.416-21.028zM445.586 205.921c-1.425-5.779-4.197-12.007-8.182-18.606l10.077-6.091c4.589 7.595 7.791 14.957 9.333 21.146l0.546 1.503-11.128 3.808-0.644-1.757zM87.95 169.135l-8.923-7.692c4.88-5.682 10.466-11.521 16.595-17.474l8.162 8.474c-5.858 5.702-11.186 11.305-15.835 16.693zM65.614 250.066l-11.15 3.769c-2.694-8.006-4.062-16.342-4.062-24.797v-0.197l11.773 0.197c0 7.166 1.153 14.273 3.435 21.028zM65.771 207.755l-10.796-4.687c1.739-6.912 4.939-14.253 9.528-21.848l10.076 6.091c-4.002 6.56-6.736 12.808-8.181 18.606l-0.625 1.835zM148.339 168.471c4.394-6.072 9.118-12.086 14.097-18.079l9.039 7.555c-4.804 5.76-9.371 11.598-13.629 17.437l-9.509-6.912zM199.047 333.827l3.027 11.363c-8.181 2.226-16.674 2.637-24.797 1.211l1.953-11.579c6.502 1.034 13.257 0.702 19.817-0.995zM135.59 187.664l10.095 6.033c-4.002 6.678-7.322 13.16-9.84 19.27l-10.874-4.55c2.754-6.62 6.327-13.629 10.621-20.754zM129.655 233.625c-1.855 7.595-2.814 14.291-3.006 21.047l-11.773-0.391c0.234-7.613 1.289-15.055 3.32-23.449l11.462 2.792zM231.417 309.967l9.567 6.853c-4.921 6.873-10.583 12.73-16.85 17.416l-7.048-9.411c5.291-3.984 10.114-8.942 14.33-14.857zM160.776 327.657l-7.458 9.157c-6.327-4.178-12.066-9.449-17.085-15.601l9.118-7.439c4.257 5.252 9.138 9.684 15.425 13.882zM134.477 295.947l-10.758 4.745c-3.183-7.166-5.545-14.818-7.029-22.746l11.558-2.167c1.328 7.010 3.417 13.784 6.23 20.169zM294.697 324.613l-7.127 9.371c-6.248-4.763-11.851-10.66-16.693-17.534l9.625-6.755c4.139 5.877 8.904 10.913 14.195 14.917zM382.502 234.153l11.363-2.891c1.971 7.613 3.046 15.502 3.28 23.528l-11.794 0.331c-0.175-7.166-1.152-14.196-2.851-20.97zM376.43 188.192c4.217 7.127 7.77 14.137 10.582 20.776l-10.856 4.529c-2.598-6.13-5.916-12.632-9.841-19.271l10.114-6.033zM395.211 278.416c-1.522 7.945-3.904 15.581-7.106 22.726l-10.758-4.824c2.831-6.288 4.939-13.061 6.306-20.11l11.558 2.207zM366.471 314.089l9.039 7.497c-4.978 6.014-10.622 11.111-16.812 15.23l-1.249 0.819-6.423-9.88 1.23-0.78c5.174-3.436 9.938-7.791 14.214-12.887zM332.44 334.842l1.875 11.618c-8.221 1.308-16.674 0.819-24.797-1.406l3.144-11.343c6.444 1.757 13.276 2.147 19.779 1.131zM363.778 168.978l-9.529 6.912c-4.236-5.877-8.767-11.735-13.531-17.513l9.079-7.497c4.939 5.994 9.606 12.067 13.981 18.099zM500.060 234.913c0 43.306-24.483 83.215-63.944 104.206-15.581 8.22-32.957 12.905-50.648 14.137-3.378 2.91-6.912 5.682-10.582 8.142-33.329 21.906-76.089 18.686-107.094-5.74v29.6h30.127v23.528h-30.127v24.991h-23.547v-24.991h-30.147v-23.528h30.147v-29.522c-31.046 24.387-73.725 27.587-107.133 5.661-3.534-2.322-6.853-4.96-10.076-7.752-18.979-0.39-37.721-5.351-54.377-14.643-37.449-21.008-60.721-60.897-60.721-104.067 0-12.439 1.954-24.777 5.505-35.555 4.978-22.688 20.131-46.45 39.363-69.37-0.058 0-0.097-0.019-0.156-0.019 1.815-8.142 3.632-16.245 5.447-24.406 127.693 28.565 260.15 28.565 387.86 0 1.796 8.142 3.632 16.264 5.428 24.406-0.625 0.137-1.271 0.234-1.894 0.373 19.817 22.472 35.36 45.688 40.456 67.77 4.062 11.911 6.111 24.269 6.111 36.785zM267.794 321.781c23.605 31.435 63.377 40.161 94.168 19.916 25.382-16.754 41.099-48.93 41.099-83.976 0-10.212-1.346-20.286-4.257-30.888-4.763-25.617-22.726-53.85-44.654-80.208-23.293 2.519-46.685 3.846-70.094 4.55 4.411 5.858 7.243 12.925 7.243 20.793 0 15.327-9.841 28.253-23.527 33.133v116.679h0.019zM256 183.739c6.502 0 11.794-5.291 11.794-11.774s-5.291-11.774-11.794-11.774-11.774 5.291-11.774 11.794 5.272 11.754 11.774 11.754zM150.059 341.677c11.479 7.555 23.88 11.383 36.863 11.383 21.848 0 42.468-11.479 57.325-31.2v-116.739c-13.667-4.88-23.528-17.807-23.528-33.134 0-7.848 2.814-14.917 7.185-20.776-23.293-0.702-46.606-2.031-69.802-4.529-22.082 26.594-40.242 55.177-45.102 81.165-2.694 9.781-4.041 19.857-4.041 29.931-0.019 34.969 15.737 67.145 41.099 83.898zM40.115 205.471c-3.086 9.567-4.648 19.466-4.648 29.424 0 34.676 18.665 66.677 48.675 83.527 6.444 3.573 13.297 6.288 20.346 8.26-7.185-11.794-12.594-24.952-15.737-39.050l-5.017 6.502c-6.775-5.251-12.671-11.265-17.592-17.904l9.469-6.971c3.436 4.667 7.614 8.864 12.163 12.769-1.425-7.927-2.383-16.010-2.383-24.288 0-12.203 1.639-24.347 4.648-35.203 4.863-26.026 20.754-53.557 40.749-79.525-15.912-2.207-31.786-4.824-47.621-7.848-21.281 23.391-38.073 47.817-43.051 70.309zM471.339 204.553c-5.116-21.965-22.454-45.962-44.594-69.019-15.072 2.851-30.186 5.331-45.357 7.438 19.838 25.736 35.555 52.969 40.299 78.606 3.241 11.655 4.88 23.821 4.88 36.161 0 8.26-0.957 16.342-2.361 24.25 4.529-3.886 8.689-8.084 12.163-12.75l9.449 6.99c-4.88 6.638-10.836 12.653-17.573 17.904l-5.038-6.502c-2.969 13.512-8.122 26.125-14.8 37.507 5.682-1.815 11.265-3.984 16.674-6.834 31.728-16.87 51.448-48.813 51.448-83.391 0-9.939-1.639-19.778-5.193-30.362z" />
<glyph unicode="&#xe63c;" d="M17.965 164.164v217.839c0 12.105 9.813 21.918 21.918 21.918h217.726c12.105 0 21.918-9.813 21.918-21.918v-217.839c0-4.034-3.271-7.306-7.306-7.306h-246.949c-4.035 0-7.306 3.272-7.306 7.306zM193.785 89.538c0-25.106-20.353-45.459-45.459-45.459s-45.459 20.353-45.459 45.459 20.353 45.459 45.459 45.459 45.459-20.352 45.459-45.459zM171.054 89.538c0 12.553-10.177 22.73-22.73 22.73s-22.73-10.176-22.73-22.73 10.176-22.73 22.73-22.73 22.73 10.178 22.73 22.73zM109.172 134.998h-101.865c-4.035 0-7.306-3.271-7.306-7.306v-22.166c0-4.035 3.271-7.306 7.306-7.306h81.65c2.132 14.627 9.514 27.548 20.215 36.778zM431.635 89.538c0-25.106-20.353-45.459-45.459-45.459s-45.459 20.353-45.459 45.459 20.353 45.459 45.459 45.459c25.106 0 45.459-20.352 45.459-45.459zM408.905 89.538c0 12.553-10.176 22.73-22.73 22.73s-22.73-10.176-22.73-22.73 10.176-22.73 22.73-22.73 22.73 10.178 22.73 22.73zM512 127.692v-22.166c0-4.035-3.271-7.306-7.306-7.306h-59.151c-4.231 29.015-29.202 51.389-59.366 51.389-30.169 0-55.142-22.375-59.373-51.389h-119.108c-2.132 14.627-9.515 27.547-20.215 36.778h112.936v208.976c0 8.070 6.542 14.612 14.612 14.612h68.974c19.421 0 37.573-9.646 48.44-25.742l44.466-65.858c6.522-9.66 10.007-21.049 10.007-32.706v-99.281h17.781c4.034 0 7.305-3.271 7.305-7.306zM437.884 265.298l-35.557 50.525c-1.368 1.945-3.598 3.101-5.975 3.101h-55.463c-4.034 0-7.306-3.271-7.306-7.306v-50.525c0-4.035 3.271-7.306 7.306-7.306h91.020c5.918 0 9.381 6.671 5.974 11.511z" />
<glyph unicode="&#xe63d;" d="M505.707 285.025c0-12.825-18.432-23.316-40.96-23.316h-415.539c-22.528 0-40.96 10.491-40.96 23.316 0 12.821 18.432 23.317 40.96 23.317h415.539c22.533 0 40.96-10.496 40.96-23.317zM435.579 48.067c-4.178-27.848-30.633-50.637-58.793-50.637h-239.611c-28.16 0-54.615 22.784-58.793 50.637l-31.447 209.639c-4.178 27.847 15.447 50.631 43.607 50.631h332.871c28.16 0 47.785-22.784 43.607-50.632l-31.442-209.638zM231.71 435.134c9.067-9.068 3.451-29.522-12.477-45.45l-117.945-117.945c-15.928-15.928-36.382-21.545-45.456-12.473s-3.456 29.522 12.472 45.45l117.95 117.945c15.934 15.933 36.388 21.545 45.456 12.473zM458.122 259.267c9.072 9.067 3.461 29.522-12.473 45.45l-117.954 117.945c-15.928 15.928-36.377 21.545-45.445 12.473-9.067-9.068-3.451-29.522 12.483-45.45l117.934-117.945c15.928-15.934 36.382-21.545 45.456-12.473z" />
<glyph unicode="&#xe63e;" d="M256 448c123.5 0 224-100.5 224-224s-100.5-224-224-224-224 100.5-224 224 100.5 224 224 224zM256 480c-141.375 0-256-114.625-256-256s114.625-256 256-256 256 114.625 256 256-114.625 256-256 256v0zM398.719 138.406l-1.438 4.375c-3.375 10.063-14.5 20.563-24.75 23.375l-37.843 10.344c-10.25 2.781-24.875-0.969-32.406-8.5l-13.688-13.688c-49.75 13.469-88.781 52.5-102.219 102.25l13.688 13.688c7.5 7.5 11.25 22.125 8.469 32.406l-10.313 37.844c-2.781 10.25-13.344 21.375-23.406 24.75l-4.313 1.438c-10.094 3.375-24.5-0.031-32-7.563l-20.5-20.5c-3.656-3.625-6-14.031-6-14.063-0.688-65.063 24.813-127.719 70.813-173.75 45.875-45.875 108.313-71.344 173.156-70.781 0.344 0 11.063 2.281 14.719 5.938l20.5 20.5c7.5 7.468 10.875 21.875 7.531 31.937z" />
<glyph unicode="&#xe63f;" d="M209.81 237.245l-195.183 112.685v-250.506l50.259 29.022v134.432l144.921-83.669 144.924 83.669v-134.432l50.259-29.022v250.506zM209.81 470.771l-182.618-105.43 50.263-29.019 132.356 76.411 132.353-76.411 50.262 29.019zM342.183 113.038l-132.38-76.418-132.326 76.392-50.263-29.012 182.588-105.42 182.608 105.42z" horiz-adv-x="415" />
</font>
</defs>
</svg>
