<?xml version="1.0" standalone="no"?>
<!DOCTYPE svg PUBLIC "-//W3C//DTD SVG 1.1//EN" "http://www.w3.org/Graphics/SVG/1.1/DTD/svg11.dtd" >
<svg xmlns="http://www.w3.org/2000/svg">
<metadata>Generated by IcoMoon</metadata>
<defs>
<font id="icomoon" horiz-adv-x="1024">
<font-face units-per-em="1024" ascent="960" descent="-64" />
<missing-glyph horiz-adv-x="1024" />
<glyph unicode="&#x20;" horiz-adv-x="512" d="" />
<glyph unicode="&#xe600;" glyph-name="draw13" d="M1018.319 569.892v-318.793c0-5.176-4.2-9.376-9.376-9.376h-975.135c-5.176 0-9.376 4.2-9.376 9.376v309.417c0 5.176 4.2 9.376 9.376 9.376s9.376-4.2 9.376-9.376v-300.040h956.383v300.040h-543.826c-5.176 0-9.376 4.2-9.376 9.376s4.2 9.376 9.376 9.376h553.202c5.176 0 9.376-4.2 9.376-9.376zM316.073 389.023l86.206 85.062c2.7 2.645 6.714 3.413 10.202 1.97 3.488-1.463 5.757-4.857 5.757-8.646v-85.044c0-5.176-4.2-9.376-9.376-9.376h-86.206c-3.807 0-7.238 2.307-8.663 5.833-1.463 3.508-0.638 7.558 2.081 10.202zM345.514 391.743h53.97v53.239l-53.97-53.239zM65.743 631.514c-1.763 1.763-2.738 4.145-2.738 6.639s0.993 4.876 2.738 6.639l79.569 79.548c3.657 3.657 9.602 3.657 13.258 0l26.517-26.517c1.763-1.763 2.738-4.145 2.738-6.639s-0.993-4.876-2.738-6.639l-79.569-79.548c-1.838-1.838-4.237-2.738-6.639-2.738s-4.8 0.919-6.639 2.738l-26.497 26.517zM85.622 638.133l13.258-13.258 66.309 66.291-13.258 13.258-66.309-66.291zM118.758 591.72l79.569 79.569c3.525 3.525 9.751 3.525 13.258 0l172.373-172.373c3.657-3.657 3.657-9.602 0-13.258l-79.569-79.569c-1.838-1.838-4.237-2.738-6.639-2.738s-4.8 0.919-6.639 2.738l-172.373 172.373c-1.763 1.763-2.738 4.145-2.738 6.639s1.014 4.857 2.756 6.619zM138.655 585.082l159.115-159.115 66.309 66.309-159.115 159.115-66.309-66.309z" />
<glyph unicode="&#xe601;" glyph-name="world92" d="M350.336 142.496c-1.088 0.736-19.264 17.088-23.776 22.88-4.416 5.824-12.928 7.392-17.376 9.696-4.48 2.336-34.048 12.064-41.152 7.008-7.008-5.056-16.672-8.128-20.416 0-3.68 8.192-5.536 9.344-10.72 10.496s-2.592 7.36-2.944 12.8c-0.416 5.472-3.36 11.264-7.072 7.392-3.712-3.904-16.32-13.984-18.144-8.896-1.856 5.024-10.784 25.984 2.592 29.888 13.312 3.872 24.448 1.568 27.808-1.92 3.328-3.488 5.888-13.216 10.016-12.032 4.096 1.184 1.856 8.576 3.328 14.752s11.168 14.368 15.552 22.88c4.448 8.576 5.184 13.6 10.72 15.968 5.632 2.304 8.576 5.408 13.76 9.312 5.216 3.904 13.312 7.36 16.352 9.344 2.976 1.984 16.288 8.544 20.704 7.392 4.448-1.184 7.392 0.384 3.712 6.976-3.712 6.592-8.512 26.432-15.552 35.328-7.040 8.928-7.808 11.296-11.136 19.808-3.328 8.576-7.072 15.936-9.664 10.112s-8.128-13.6-11.104-6.208c-2.944 7.392-2.592 7.008-6.304 10.496-3.68 3.488-6.688 4.288-11.84 5.824-5.184 1.568-10.368-0.384-10.016-5.44s-4.864-14.048-1.472-20.64c3.328-6.624 6.304-13.6 1.824-15.936-4.416-2.304 0-16.32-4.416-15.904-4.448 0.352-6.656-0.416-6.656 4.672 0 5.024 2.208 12.8-5.984 12.8-8.128 0-12.96 4.256-18.88 8.544-5.952 4.256-10.752 1.952-9.28 11.648 1.472 9.728-0.704 13.216 5.92 18.656 6.688 5.408 8.192 8.544 12.992 6.208 4.832-2.336 8.128-2.336 11.168 0.384 2.944 2.72 8.48 1.568 8.48 5.056s-6.304 3.488-5.536 9.28c0.704 5.888 3.712 2.752 4.8 12.48 1.088 9.696-7.040 24.448-15.2 22.528-8.192-1.952-20.736-13.216-23.328-8.16-2.624 5.056-7.808 2.72-17.824-0.768-10.016-3.52-51.52 3.488-54.464 7.008 0 0-7.072 5.024-10.784 2.304-3.68-2.72-18.528-1.536-22.976-0.8-4.48 0.8-8.544-5.024-14.048-3.104-5.632 1.952-25.248 5.824-29.664 8.96-4.512 3.104-11.2 3.104-14.080 4.64-2.976 1.568-13.76 2.336-15.936-0.768-2.208-3.104-10.368-8.544-14.464-12.416-4.064-3.904-8.832-3.136-4.8-11.296 4.064-8.128-10.368-13.216-6.688-22.112s-0.736-32.992 14.080-37.664c14.848-4.672 27.072-7.392 35.584-0.416 8.576 7.008 21.536 7.008 25.6-0.768s6.304-19.424 19.616-26.016c13.312-6.624 24.832-25.664 24.096-34.176-0.704-8.544 0.416-36.896 14.048-53.216 13.76-16.32 27.84-45.856 28.896-38.848 1.12 7.008 1.12 14.016 4.128 8.96 2.912-5.088 10.72-20.608 23.328-23.328 12.64-2.72 18.944-3.488 23.712-8.192 4.8-4.64 8.928-7.36 14.080-9.696 5.184-2.336 17.792-9.344 20.384-13.984 2.624-4.672 1.504-10.88-1.12-17.888-2.56-7.008-5.536-13.984-1.856-20.608 3.744-6.592 11.52-25.632 17.856-29.888 6.304-4.288 12.544-11.264 11.072-20.992-1.472-9.632-8.512-51.2-7.776-60.544 0.768-9.28-8.48-39.968-1.088-52.416 7.392-12.416 20.064-16.32 25.6-14.72 5.536 1.504 1.12 1.92-1.504 7.744-2.592 5.856-2.24 13.248 0.736 18.656 3.008 5.44 3.008 8.544 1.504 14.752s-0.736 9.728 2.944 14.368c3.744 4.672 19.296 17.088 24.128 22.528 4.768 5.44 35.232 42.752 39.296 45.856s13.312 10.496 16.32 22.112c2.976 11.648 13.696 34.56 6.304 40.416-7.456 5.76-34.88 10.080-36 10.848zM424.448 470.304c2.112 4.128 7.232 14.464 9.984 20.128h-117.44c1.408-6.24 6.496-29.408 5.536-38.784-1.12-10.88 2.24-7.008 5.184-11.296 2.976-4.256 2.24-10.88 0.384-15.904-1.888-5.056-2.976-16.32 3.008-29.536 5.888-13.216 12.928-29.888 18.848-30.688 5.984-0.768 4.48-9.312 8.576-6.208 4.064 3.136 4.768 10.080 8.16 20.192 3.328 10.080 3.328 17.472 11.872 22.528s32.224 21.344 37.408 27.2c5.216 5.824 11.136 8.16 9.28 18.24-1.92 10.112-3.744 18.304-0.8 24.128zM1002.688 424.48c-4.448 3.104-31.104 24.448-42.624 21.728-11.456-2.72-31.872 6.24-35.2 8.16-3.328 1.952-30.72 10.368-45.184 10.88-7.2 0.256-37.44 7.008-50.080 12.416-12.608 5.44-23.328 32.224-47.424 27.968-3.104-0.576-32.224-4.672-39.648-11.296-7.392-6.624-10.752-14.336-14.816-15.904s-15.936-0.768-15.936-6.624c0-5.824 4.096-23.712-0.736-20.192-4.832 3.488-9.632 11.648-11.84 5.408s-5.984-9.696-8.192-7.36c-2.176 2.304-13.376 0-14.816-3.904-1.472-3.904-15.936-12.8-22.208-14.016-6.304-1.152-8.928-4.256-12.256-5.824-3.328-1.536-28.544-13.216-33.344-8.928-4.832 4.256-6.304 1.536-9.28 0.768 0 0-8.896 1.568-14.432 8.544-5.6 6.976-6.688 4.672-12.992 11.264-6.272 6.592-7.776 13.184-14.080 10.464-6.272-2.688-32.96-30.272-43.36-42.688-10.336-12.448-28.896-25.248-19.648-34.176 9.312-8.928 14.080-7.776 15.232-12.8s2.24-10.496 3.712-12.448c1.472-1.952 10.368-8.928 14.816 0.384 4.512 9.344 5.184 15.936 10.4 14.368 5.184-1.536 6.272-5.056 3.648-12.032-2.592-7.008-4.416-17.856-13.312-17.472s-18.496 5.824-21.536 4.64c-2.944-1.152-4.736-3.872-8.128-6.592-3.328-2.72-13.728-15.52-20.768-17.472-7.008-1.952-15.52-0.352-10.72-6.176s11.84-18.656 5.184-18.272c-6.656 0.384-17.792 1.536-18.528-5.056s-3.68-10.496-2.208-15.136c1.472-4.672 6.304-13.6 12.192-10.496 6.016 3.136 17.472 6.208 20.416 13.216 2.976 7.008 6.336 14.72 13.728 14.368 7.392-0.384 25.216-10.112 24.096-13.6s-4.8-11.648-0.352-8.928c4.416 2.72 8.128 5.824 10.72 6.976 2.592 1.184 5.984-3.904 7.040-5.824 1.12-1.984 8.544-5.824 10.016 0.416 1.504 6.208 2.976 1.504 7.392-0.416 4.48-1.984 17.792-3.488 19.616-5.056 1.888-1.536 5.952-6.208 0.768-12.416s-11.136-8.576-19.648-3.904c-8.544 4.672-17.824-3.904-27.392 0.8-9.664 4.64-5.216 11.232-16.704 15.904-11.424 4.672-37.408-1.152-45.6-3.488-8.16-2.304-8.512-3.104-11.84-6.976-3.328-3.904-25.184-29.12-25.184-43.488s8.128-53.248 34.432-49.344c26.336 3.904 42.272 1.568 39.328-6.176-3.008-7.808-1.472-9.728 3.328-18.656s15.968-68.352 17.792-78.048c1.888-9.728-1.44-22.144 10.784-20.192 12.256 1.92 25.216 5.024 30.368 16.288 5.216 11.264 5.984 24.064 12.64 30.656 6.688 6.624 14.816 6.624 15.552 15.936 0.704 9.344-1.856 31.456 2.592 36.544 4.448 5.024 25.184 28.352 27.392 37.664 2.272 9.312 5.184 11.648-3.328 11.648s-22.976 1.152-27.104 8.928c-4.032 7.776-13.696 22.528-13.696 26.016s5.952 3.104 8.896-4.256c2.976-7.36 13.312-29.536 25.184-24.832 11.872 4.672 28.544 10.080 28.928 17.472 0.352 7.36-5.184 15.904-11.136 15.488-5.952-0.384-12.224 3.904-12.224 8.16s1.088 2.688 8.128 0c7.072-2.72 9.28-7.36 20.032-8.16 10.752-0.768 22.976-11.232 28.896-15.936 5.92-4.672 16.288-36.512 18.912-39.616 2.56-3.136 5.6-3.136 8.16 3.104 2.624 6.24 13.696 26.016 20.032 31.488 6.304 5.44 6.656 12.8 10.336 8.128 3.712-4.672 19.648-16.288 20.768-23.296 1.12-6.976-0.736-22.144 2.592-17.472s5.952 14.368 8.864 10.080c2.976-4.288 2.976-10.88 10.016-5.824 7.072 5.024 19.296 6.976 12.64 17.856s-2.24 17.472 1.888 17.856c4.064 0.416 31.872 5.44 32.608 20.608 0.736 15.136-9.664 23.296-4.768 31.072 4.768 7.776 11.808 14.752 13.312 10.112 1.472-4.672-3.712-19.808 2.944-17.472 6.688 2.336 14.464 2.336 14.464 7.008s-1.504 16.352 1.504 19.424c2.976 3.104 24.8 23.68 27.424 31.84 2.592 8.16 7.424 15.136 3.328 21.344s-11.104 4.288-5.568 12.032c5.568 7.776 14.848 14.944 21.888 15.552 22.496 1.952 16.16-25.856 16.512-32.064 0.416-6.208 0.416-21.76 3.744-13.984s7.168 17.312 13.856 23.904c6.688 6.592 10.368 10.88 10.784 16.704 0.384 5.824 0.704 7.776 7.040 10.88 6.304 3.104 34.080 13.984 36.672 21.344s-3.328 14.016 3.328 13.568c6.656-0.352 12.96-7.744 16.32-3.872 3.328 3.872 10.752 10.848 10.368 14.752-0.448 3.968-11.232 12.896-15.712 16.032zM883.008 293.984c-2.24-5.088-3.328-5.856-6.656-16.352-3.392-10.464-2.272-7.744-5.6-14.336-3.328-6.624-8.864-7.36-14.432-11.68-5.6-4.288-7.072-12.8-7.072-12.8-4.832-6.592 19.648 9.344 28.16 14.368 8.512 5.056 6.336 10.88 7.040 19.040 0.768 8.16 3.040 9.344 6.656 12.832 3.712 3.488 0.768 10.496-1.024 15.52-1.92 5.056-4.864-1.568-7.072-6.592zM807.008 117.632c2.592 1.952 0.736 6.208 4.8 5.44 4.096-0.768 7.776-3.136 12.64-0.416 4.8 2.752 8.896 1.6 8.128 6.24-0.704 4.64 0 10.848-1.088 14.72-1.12 3.904-7.776 5.088-12.608 0.768-4.8-4.288-11.456-10.88-11.456-8.512 0 2.304 2.912 8.512 1.44 12.416-1.44 3.872 0.736 7.36-6.656 4.256-7.424-3.104-11.488-2.336-14.080-6.624s-5.568-11.648-10.016-6.976c-4.448 4.64-17.44 14.336-17.44 14.336-1.056 1.184-15.872 13.248-10.688 5.056 5.152-8.16 12.96-22.144 16.672-27.168 3.648-5.056 7.744-10.88 12.192-8.16s5.216 3.488 11.136 0c5.888-3.424 14.432-7.328 17.024-5.376zM897.856 128.512c-7.072 3.104-4.128 5.824-12.64 7.36-8.544 1.536-15.552 0-17.824 1.536-2.24 1.568-13.312 5.44-11.84 0 1.504-5.472 11.488-6.976 14.080-8.512 2.592-1.568-3.712-5.088 1.088-7.776s8.16-7.776 14.464-6.208 8.512-1.952 13.664-2.72c5.216-0.768 10.4 0.768 8.224 3.136-2.24 2.304-3.68 5.44-3.328 8.128 0.352 2.72 1.088 1.952-5.888 5.056zM894.112 93.952c-2.592 7.776-8.896 22.112-10.336 15.136-1.504-6.976-11.52-12-15.264-11.616-3.392 0.352-1.472 3.872-1.472 7.008 0 3.104-1.92 6.208-10.4 3.872-8.544-2.336-10.336-10.496-12.608-9.728-2.208 0.768-8.16 2.336-11.84-1.952-3.712-4.288-7.072-12.416-11.488-13.984-4.48-1.568-19.328-3.488-19.328-9.728 0-6.208 3.744-15.52 3.36-20.576s-7.136-16.672 1.856-20.192c5.184-2.048 8.864-2.336 14.88 0.768 5.888 3.104 31.456 11.264 34.816 8.576 3.328-2.72 8.736-9.12 11.104-10.496 4.736-2.784 5.984-9.312 12.288-10.848 6.208-1.568 11.104-2.336 13.664-2.336 2.624 0 11.84 3.104 14.080 8.544 2.24 5.472 6.304 18.272 8.16 24.48 1.92 6.208 3.68 13.184-1.856 18.656-5.504 5.344-17.024 16.64-19.616 24.416zM499.904 476.32c4.384-10.72 19.456-10.784 23.904-0.064 53.696 131.904 167.968 157.664 167.968 294.944-0.032 105.152-90.208 189.216-197.44 179.104-105.504-9.952-177.696-112.128-159.296-216.448 18.752-105.952 116.352-138.592 164.864-257.536zM511.808 866.24c52.512 0 95.040-42.56 95.040-95.008 0-52.48-42.56-95.008-95.008-95.008-52.48 0-95.008 42.528-95.008 95.008s42.496 95.008 94.976 95.008z" />
<glyph unicode="&#xe602;" glyph-name="timer3" d="M433.27 448.118c-0.079-43.481 35.131-78.809 78.612-78.848 43.481 0 78.769 35.249 78.848 78.651 0.079 43.559-35.17 78.809-78.612 78.809-43.52 0.079-78.809-35.052-78.848-78.612zM534.567 426.811c0 0 0.039 0.079 0.039 0.158 15.36 15.36 43.362 67.545 28.357 80.857 0 0-417.871 333.47-430.434 320.906s319.646-431.655 319.646-431.655c13.43-14.927 67.072 14.454 82.393 29.735zM590.809 881.231c0-43.525-35.284-78.809-78.809-78.809s-78.809 35.284-78.809 78.809c0 43.525 35.284 78.809 78.809 78.809s78.809-35.284 78.809-78.809zM680.842 889.226c-27.097-45.45 15.596-73.295 28.475-80.345 127.764-69.947 214.764-205.194 214.764-360.881 0-227.249-184.832-412.081-412.081-412.081s-412.121 184.832-412.121 412.081c0 52.224 9.964 102.164 27.845 148.086 2.324 5.947 24.773 45.489-19.18 73.137-30.090 18.905-59.55-2.442-65.457-15.911-27.648-62.858-43.087-132.254-43.087-205.312 0-282.782 229.218-512 512-512s512 229.218 512 512c0 201.374-116.539 375.257-285.657 458.673-3.545 1.772-38.558 14.336-57.502-17.447z" />
<glyph unicode="&#xe603;" glyph-name="print36" d="M273.315 175.218h511.467v-34.098h-511.467v34.098zM273.315 72.924h511.467v-34.098h-511.467v34.098zM852.979 482.098c0-18.831-15.266-34.098-34.098-34.098s-34.098 15.266-34.098 34.098c0 18.831 15.266 34.098 34.098 34.098s34.098-15.266 34.098-34.098zM921.174 652.587h-68.196v238.685c0 37.507-30.688 68.196-68.196 68.196h-511.467c-37.507 0-68.196-30.688-68.196-68.196v-238.685h-68.196c-57.966 0-102.294-44.327-102.294-102.294v-306.88c0-57.966 44.327-102.294 102.294-102.294h68.196v-136.391c0-37.507 30.688-68.196 68.196-68.196h511.467c37.507 0 68.196 30.688 68.196 68.196v136.391h68.196c57.966 0 102.294 44.327 102.294 102.294v306.88c0 57.966-44.327 102.294-102.294 102.294zM239.218 891.271c0 17.049 13.639 34.098 34.098 34.098h511.467c17.049 0 34.098-13.639 34.098-34.098v-238.685h-579.662v238.685zM818.88 4.729c0-17.049-13.639-34.098-34.098-34.098h-511.467c-17.049 0-34.098 13.639-34.098 34.098v238.685h579.662v-238.685zM989.37 243.413c0-37.507-30.688-68.196-68.196-68.196h-68.196v102.294h-647.859v-102.294h-68.196c-37.507 0-68.196 30.688-68.196 68.196v306.88c0 37.507 30.688 68.196 68.196 68.196h784.25c37.507 0 68.196-30.688 68.196-68.196v-306.88z" />
<glyph unicode="&#xe604;" glyph-name="pen68" d="M972.675 36.425c-1.528 0-2.946-0.108-4.473-0.327l-268.091-34.697c-13.748-1.746-23.351 13.312-15.93 25.096 4.037 6.219 7.965 12.548 11.894 18.876 10.366 16.804-3.492 39.172-22.695 39.172-1.31 0-2.619-0.108-4.037-0.327l-507.922-76.379c-12.985-1.963-21.714-12.985-20.622-26.187 0.437-5.892 2.837-11.457 6.655-15.603 4.473-4.91 10.693-7.638 17.459-7.638 1.31 0 2.619 0.108 4.037 0.327l418.776 62.958c14.294 2.182 24.114-13.966 15.713-25.751-2.728-3.71-5.455-7.529-8.184-11.238-7.529-10.258-5.783-27.387 2.946-36.226 4.473-4.583 10.147-6.983 16.149-6.983 0.654 0 1.418 0 2.074 0.108h0.219l361.709 46.046c6.219 0.983 11.675 4.583 15.275 10.147 3.928 6.11 5.347 13.639 3.601 20.405-2.837 11.020-12.44 18.222-24.55 18.222zM68.674 11.985c-3.492-4.692 1.855-10.803 6.983-8.074 58.485 31.97 117.297 46.7 149.594 50.191 11.565 1.199 21.169 9.602 23.678 20.95 15.494 68.741 112.168 227.064 112.168 227.064l-129.517 95.256c0 0-122.315-138.901-183.419-174.253-10.039-5.783-15.494-17.349-13.203-28.806 6.219-31.751 10.803-90.891-2.291-156.032-1.091-5.674 6.329-8.948 9.711-4.256l157.777 214.188c5.674 7.638 16.476 8.948 23.786 2.728l0.983-0.872c6.547-5.564 7.747-15.275 2.619-22.15l-158.868-215.935zM247.292 426.615l136.937-100.821c12.002-8.838 29.024-6.438 37.972 5.564 27.933 37.207 90.891 110.204 169.562 131.808l187.565 259.798c8.948 12.111 6.329 29.242-5.783 38.189l-230.993 169.997c-12.111 8.948-29.242 6.329-38.189-5.783l-187.348-259.689c2.728-81.508-48.337-163.342-75.615-201.095-8.729-12.111-6.11-29.024 5.892-37.972z" />
<glyph unicode="&#xe605;" glyph-name="shopping116" d="M901.002-34.291l-59.288 970.284c-0.703 11.411-10.166 20.311-21.598 20.311h-616.451c-11.442 0-20.895-8.901-21.586-20.311l-59.481-973.344c-0.366-5.958 1.74-11.8 5.828-16.148 4.089-4.337 9.779-6.802 15.757-6.802h735.417c0.067 0.008 0.152 0 0.217 0 11.938 0 21.63 9.689 21.63 21.63 0 1.504-0.152 2.965-0.443 4.38zM674.115 801.29c0-33.852-27.439-61.288-61.288-61.288h-201.884c-33.837 0-61.277 27.439-61.277 61.288 0 33.837 27.439 61.288 61.277 61.288h201.884c33.852-0.008 61.288-27.448 61.288-61.288z" />
<glyph unicode="&#xe606;" glyph-name="view1" d="M246.885 680.109h404.803v-65.613h-404.803v65.613zM849.959 186.772c31.382 55.433 22.281 126.065-23.363 171.66-27.002 27.002-62.908 41.907-101.226 41.907s-74.27-14.903-101.274-41.907-41.907-62.908-41.907-101.274c0-38.218 14.903-74.172 41.907-101.274 27.002-26.903 62.908-41.81 101.177-41.81 24.936 0 49.089 6.345 70.534 18.444l160.445-160.445 54.153 54.204-160.445 160.495zM785.626 196.953c-32.070-32.070-88.339-32.070-120.408 0-33.202 33.251-33.202 87.208 0 120.457 16.034 16.034 37.48 24.889 60.253 24.889s44.12-8.855 60.204-24.889c16.085-16.034 24.936-37.48 24.936-60.253s-8.903-44.12-24.986-60.204zM769.294 77.972h-564.413c-8.952 0-16.183 7.278-16.183 16.132v705.037c0 8.952 7.231 16.183 16.183 16.183h564.413c8.952 0 16.132-7.231 16.132-16.183v-359.651c23.363-5.115 45.153-15.101 64.435-29.364v389.015c0 44.415-36.104 80.567-80.567 80.567h-564.413c-44.415 0-80.567-36.152-80.567-80.567v-705.037c0-44.365 36.152-80.519 80.567-80.519h564.413c33.691 0 49.628 7.967 61.63 37.382l-29.216 29.216c-10.771-4.526-27.79-2.213-32.413-2.213zM246.885 495.169h404.803v-65.613h-404.803v65.613z" />
<glyph unicode="&#xe607;" glyph-name="phone378" d="M1009.049 603.968c-0.777 147.399-120.929 267.079-268.505 267.079h-457.086c-148.056 0-268.508-120.454-268.508-268.508 0-10.347 8.388-18.732 18.732-18.732h327.205c10.345 0 18.732 8.386 18.732 18.732v123.64h264.761v-123.64c0-10.347 8.388-18.732 18.732-18.732h327.205c0.014 0.002 0.033 0 0.047 0 10.345 0 18.732 8.386 18.732 18.732 0 0.48-0.014 0.959-0.051 1.429zM681.848 621.273v123.64c0 10.347-8.388 18.732-18.732 18.732h-302.227c-10.345 0-18.732-8.386-18.732-18.732v-123.64h-288.986c9.567 118.67 109.201 212.308 230.29 212.308h457.086c121.091 0 220.723-93.638 230.29-212.308h-288.986zM748.036 536.992h-472.074c-79.196 0-143.62-64.425-143.62-143.62v-224.797c0-79.196 64.425-143.62 143.62-143.62h472.074c79.196 0 143.62 64.425 143.62 143.62v224.797c0 79.196-64.425 143.62-143.62 143.62zM854.191 168.575c0-58.535-47.621-106.154-106.154-106.154h-472.074c-58.535 0-106.154 47.621-106.154 106.154v224.797c0 58.535 47.621 106.154 106.154 106.154h472.074c58.535 0 106.154-47.621 106.154-106.154v-224.797zM413.48 427.242h-30.937c-9.285 0-16.812-7.528-16.812-16.814v-30.93c0-9.289 7.531-16.814 16.812-16.814h30.937c9.285 0 16.812 7.528 16.812 16.814v30.93c0 9.289-7.531 16.814-16.812 16.814zM527.468 427.242h-30.937c-9.285 0-16.812-7.528-16.812-16.814v-30.93c0-9.289 7.531-16.814 16.812-16.814h30.937c9.285 0 16.812 7.528 16.812 16.814v30.93c0 9.289-7.528 16.814-16.812 16.814zM641.457 427.242h-30.937c-9.285 0-16.812-7.528-16.812-16.814v-30.93c0-9.289 7.531-16.814 16.812-16.814h30.937c9.285 0 16.812 7.528 16.812 16.814v30.93c0.002 9.289-7.528 16.814-16.812 16.814zM413.48 313.259h-30.937c-9.285 0-16.812-7.528-16.812-16.814v-30.934c0-9.289 7.531-16.814 16.812-16.814h30.937c9.285 0 16.812 7.528 16.812 16.814v30.934c0 9.287-7.531 16.814-16.812 16.814zM527.468 313.259h-30.937c-9.285 0-16.812-7.528-16.812-16.814v-30.934c0-9.289 7.531-16.814 16.812-16.814h30.937c9.285 0 16.812 7.528 16.812 16.814v30.934c0 9.287-7.528 16.814-16.812 16.814zM641.457 313.259h-30.937c-9.285 0-16.812-7.528-16.812-16.814v-30.934c0-9.289 7.531-16.814 16.812-16.814h30.937c9.285 0 16.812 7.528 16.812 16.814v30.934c0.002 9.287-7.528 16.814-16.812 16.814zM413.48 199.268h-30.937c-9.285 0-16.812-7.528-16.812-16.814v-30.934c0-9.289 7.531-16.814 16.812-16.814h30.937c9.285 0 16.812 7.528 16.812 16.814v30.934c0 9.287-7.531 16.814-16.812 16.814zM527.468 199.268h-30.937c-9.285 0-16.812-7.528-16.812-16.814v-30.934c0-9.289 7.531-16.814 16.812-16.814h30.937c9.285 0 16.812 7.528 16.812 16.814v30.934c0 9.287-7.528 16.814-16.812 16.814zM641.457 199.268h-30.937c-9.285 0-16.812-7.528-16.812-16.814v-30.934c0-9.289 7.531-16.814 16.812-16.814h30.937c9.285 0 16.812 7.528 16.812 16.814v30.934c0.002 9.287-7.528 16.814-16.812 16.814z" />
<glyph unicode="&#xe608;" glyph-name="right14" horiz-adv-x="888" d="M0-64h409.617v1024h-227.551zM705.48 960h-227.593v-1024h409.702z" />
<glyph unicode="&#xe609;" glyph-name="receipt1" d="M256 960c-141.374 0-256-114.626-256-256v-768h64l64 64 64-64h64l64 64 64-64h64l64 64 64-64h64l64 64 64-64v768c0 141.374 114.626 256 256 256h-768zM704 704v-613.5l-90.5-90.5h-11l-90.5 90.562-90.5-90.562h-11l-90.5 90.5-90.5-90.5h-11l-90.5 90.5-64-64v677.5c0 105.876 86.126 192 192 192h512.126c-40.25-53.5-64.126-120-64.126-192zM128 320h320v-64h-320v64zM128 448h320v-64h-320v64zM128 576h320v-64h-320v64zM640 256h-64v64h64v-64zM640 384h-64v64h64v-64zM640 512h-64v64h64v-64z" />
<glyph unicode="&#xe60a;" glyph-name="fast44" d="M442.332 772.35l324.354-324.35-324.354-324.35 128.456-128.46 452.811 452.811-452.811 452.811zM149.8-4.811l452.811 452.811-452.811 452.811-128.456-128.46 324.35-324.35-324.35-324.35z" />
<glyph unicode="&#xe60b;" glyph-name="pencil108" horiz-adv-x="1006" d="M22.865 39.264c1.108 0 2.217 0.082 3.346 0.287l263.979 43.802c1.129 0.185 2.135 0.636 3.202 1.006 0.534 0.185 1.067 0.267 1.58 0.493 2.217 0.965 4.208 2.319 5.932 3.961 0.144 0.144 0.328 0.164 0.472 0.308l610.061 613.838c3.859 3.879 6.014 9.113 6.014 14.614 0 5.48-2.155 10.735-6.014 14.594l-220.465 221.779c-8.025 8.067-21.018 8.067-29.023 0l-610.061-613.838c-0.144-0.144-0.185-0.349-0.328-0.493-1.642-1.745-2.976-3.736-3.941-5.973-0.205-0.493-0.287-1.006-0.472-1.519-0.369-1.088-0.821-2.114-1.006-3.264l-43.555-265.601c-1.067-6.568 1.067-13.28 5.747-17.96 3.9-3.9 9.134-6.035 14.532-6.035zM676.461 910.143l191.421-192.591-581.038-584.63-191.401 192.591 581.017 584.63zM80.152 282.472l163.897-164.923-196.286-32.574 32.389 197.497zM985.227-22.703h-964.702c-11.33 0-20.526-9.237-20.526-20.649s9.195-20.649 20.526-20.649h964.702c11.33 0 20.526 9.237 20.526 20.649s-9.195 20.649-20.526 20.649z" />
<glyph unicode="&#xe60c;" glyph-name="drug2" horiz-adv-x="1011" d="M922.585 557.647h33.129v72.826h-292.849l29.757 52.305-119.864 68.198 118.85 209.023-79.461-38.573-82.922-145.719-122.332 69.586-353.486-621.405 116.469-66.258-31.939-56.141-93.237 53.011-44.701-78.491 246.34-140.010 44.679 78.491-113.361 64.428 31.895 56.141 129.54-73.708 321.812 565.683v-69.388h43.312l-81.886-123.964v-497.045h388.488v497.485l-88.234 123.523zM324.192 115.685l-94.89 53.981 143.052 251.476 70.027-39.808 19.088 33.504-164.939 93.722-19.088-33.482 55.193-31.388-143.052-251.432-81.842 46.552 314.053 552.127 216.473-123.104-314.075-552.149zM966.735-19.277h-300.321v439.714l90.636 137.211h111.356l98.329-137.63v-439.295zM699.477 385.743h165.314v-372.794h-165.314v372.794zM309.799 531.131l125.066 219.956 164.873-93.788-26.252-46.266-40.844 23.232-12.321-21.623 40.822-23.254-39.411-69.234-39.146 22.262-12.365-21.623 39.19-22.306-34.76-61.122-164.851 93.766zM364.859 343.158l39.874-22.659-12.321-21.645-39.874 22.681 12.321 21.623zM320.401 259.861l39.874-22.681-12.321-21.623-39.874 22.703 12.321 21.601z" />
<glyph unicode="&#xe60d;" glyph-name="delivery32" d="M618.829 502.212l58.391 79.459c5.586 7.602 19.389 6.291 24.849-2.236l53.062-82.899c5.084-7.944-1.275-17.413-11.557-17.097l-22.163 0.684v-148.662c0-6.56-6.205-12.292-13.925-12.806l-35.867-2.39c-8.133-0.543-14.784 4.541-14.784 11.359v154.49l-24.612 0.76c-11.896 0.366-19.412 11.15-13.394 19.34zM835.464 476.604l19.218-0.593v-136.632c0-6.030 5.204-10.57 11.576-10.147l28.179 1.878c6.084 0.404 10.979 5.455 10.979 11.282v132.054l17.517-0.54c8.142-0.251 13.185 8.204 9.153 15.256l-41.91 73.326c-4.294 7.514-15.14 8.543-19.521 1.757l-45.618-70.625c-4.685-7.247 1.162-16.731 10.427-17.016zM591.807 248.115l354.804 36.188c2.836 0.289 5.126 2.811 5.126 5.632v15.325c0 2.821-2.29 4.915-5.126 4.677l-354.804-29.792c-4.448-0.374-8.070-3.558-8.070-7.113v-19.306c0-3.553 3.622-6.066 8.070-5.612zM1024 709.553v-599.859c0-36.356-26.532-67.27-62.467-72.786l-438.363-67.273c-7.404-1.137-14.936-1.137-22.34 0l-224.118 34.395v233.697l-79.859-15.721v-205.72l-134.387 20.625c-35.935 5.513-62.467 36.428-62.467 72.783v599.859c0 31.812 20.429 60.027 50.652 69.957l146.202 48.036v-179.502l79.859 15.721v190.020l212.302 69.754c14.93 4.905 31.039 4.905 45.97 0l438.364-144.028c30.222-9.93 50.651-38.145 50.651-69.957zM968.772 722.881l-401.544 131.93v-822.541l401.545 61.623v628.988z" />
<glyph unicode="&#xe60e;" glyph-name="commercial15" d="M1002.738 764.314l-111.944 140.442c-10.574 13.267-26.615 20.995-43.581 20.995h-578.579c-16.964 0-33.005-7.727-43.58-20.993l-111.942-140.443c-11.694-14.671-21.263-42.028-21.263-62.679v-102.872c8.892 13.988 21.888 24.488 37.472 29.859 0.87 11.756 4.435 23.158 10.532 33.54 10.559 17.988 27.498 30.778 47.69 36.029 7.238 1.892 13.865 2.748 20.492 2.748 26.696 0 50.888-13.58 65.052-34.913 4.218 0.735 8.476 1.116 12.749 1.116 13.108 0 25.495-3.603 36.285-9.815l62.006 16.128c7.77 2.028 15.756 3.048 23.757 3.048 42.886 0 80.372-29.009 91.176-70.548l121.518-467.049c6.341-24.369 2.803-49.745-9.933-71.46-12.749-21.715-33.199-37.158-57.568-43.5l-54.232-14.107h455.494c38.474 0 69.664 31.19 69.664 69.664l-0.001 624.022c0 18.762-9.568 46.118-21.262 60.79zM149.693 765.503l37.071 46.51h252.931l24.959 41.038h-245.179l27.369 34.337c5.317 6.671 13.26 10.497 21.791 10.497h578.579c8.531 0 16.474-3.826 21.791-10.497l27.369-34.337h-249.549l13.933-41.038h268.325l37.071-46.51h-816.461zM161.001 593.901l-15.636-4.068c-16.654-4.333-26.643-21.347-22.31-38.001l0.159-0.609c4.334-16.655 21.347-26.643 38.002-22.31l132.605 34.497c16.655 4.333 26.643 21.345 22.31 38.002l-0.159 0.609c-4.333 16.654-21.347 26.643-38.001 22.31l-15.636-4.068c-8.355-2.173-16.891 2.838-19.064 11.192l-0.133 0.508c-5.047 19.402-24.867 31.039-44.27 25.992l-0.812-0.211c-19.402-5.048-31.039-24.868-25.992-44.27l0.133-0.508c2.171-8.356-2.84-16.892-11.196-19.066zM203.743 637.541c8.411 2.188 17.005-2.857 19.192-11.268s-2.857-17.005-11.269-19.192c-8.411-2.188-17.004 2.857-19.192 11.268s2.858 17.005 11.269 19.192zM399.169 157.189c1.459-5.608-1.905-11.337-7.511-12.795l-192.918-50.186c-5.608-1.459-11.337 1.905-12.795 7.512l-2.642 10.153c-1.459 5.609 1.905 11.337 7.512 12.795l192.916 50.186c5.609 1.459 11.337-1.905 12.795-7.511l2.642-10.154zM422.698 358.441l2.642-10.153c1.458-5.608-1.905-11.337-7.512-12.795l-263.991-68.677c-5.608-1.459-11.336 1.905-12.795 7.511l-2.642 10.154c-1.458 5.609 1.905 11.337 7.512 12.795l263.991 68.677c5.608 1.459 11.336-1.903 12.795-7.512zM394.054 426.875l-263.991-68.677c-5.608-1.458-11.336 1.905-12.795 7.512l-2.642 10.154c-1.458 5.608 1.905 11.336 7.512 12.795l263.991 68.676c5.609 1.459 11.336-1.905 12.795-7.511l2.642-10.154c1.459-5.608-1.903-11.336-7.512-12.795zM388.192 241.059l-213.224-55.47c-5.608-1.458-11.337 1.905-12.795 7.512l-2.642 10.154c-1.459 5.608 1.905 11.336 7.512 12.795l213.224 55.469c5.608 1.459 11.336-1.905 12.795-7.512l2.642-10.154c1.458-5.606-1.905-11.336-7.512-12.794zM580.115 128.376l-121.504 467.062c-7.293 28.037-35.937 44.854-63.974 37.56l-61.916-16.108c1.463-3.023 2.679-6.217 3.557-9.587 7.397-28.438-9.35-56.964-37.179-64.204l-130.656-33.989c-26.671-6.939-55.388 6.794-64.342 32.859-1.686 4.909-2.598 9.843-2.86 14.703l-61.979-16.124c-28.037-7.293-44.854-35.936-37.56-63.974l121.505-467.062c7.295-28.038 35.937-44.855 63.974-37.56l355.373 92.449c28.038 7.295 44.854 35.936 37.56 63.974zM173.975 22.721l-105.656 406.139 355.373 92.449 105.656-406.14-355.373-92.448z" />
<glyph unicode="&#xe60f;" glyph-name="weight4" d="M885.73 723.404h-234.752v65.485c0 76.661-62.37 139.031-138.978 139.031-76.661 0-139.031-62.37-139.031-139.031v-65.485h-234.698l-127.978-755.343h1003.418l-127.978 755.343zM424.146 788.907c0 48.467 39.439 87.854 87.854 87.854s87.782-39.369 87.782-87.854v-52.92h-175.637v52.92zM164.792 688.788h694.434l116.205-686.040h-926.861l116.223 686.040zM504.767 488.477h-40.759l-77.822-95.544c-6.423-8.289-13.199-17.317-19.975-27.173h-1.161v122.717h-32.909v-254.498h32.893v96.987l24.55 27.982 83.453-124.969h38.911l-99.363 146.493 92.183 108.004zM661.22 389.22h-0.757c-8.343 15.047-25.307 31.273-57.038 31.273-42.254 0-82.68-34.706-82.68-96.653 0-50.614 32.488-89.102 77.822-89.102 28.316 0 48.291 13.586 58.146 30.569h0.757v-20.045c0-46.443-24.955-64.166-58.903-64.166-22.702 0-41.568 6.793-53.676 14.712l-8.289-25.711c14.712-9.785 38.858-15.047 60.804-15.047 23.054 0 48.714 5.667 66.876 21.893 17.37 16.279 26.063 41.516 26.063 83.859v106.069c0 21.946 0.352 37.028 1.443 49.876h-29.426l-1.145-27.524zM657.050 311.749c0-5.667-0.686-12.108-2.587-17.793-6.846-21.118-25.361-33.984-46.091-33.984-35.567 0-53.976 29.865-53.976 65.714 0 42.325 22.65 69.146 54.328 69.146 24.604 0 40.425-15.857 46.497-35.567 1.513-4.1 1.848-9.046 1.848-14.712v-32.804z" />
<glyph unicode="&#xe610;" glyph-name="smiling36" d="M869.353 805.306c-197.057 197.065-517.662 197.065-714.681 0.046-197.057-197.037-197.037-517.652 0.021-714.71 196.998-197.018 517.605-197.018 714.643 0.038 197.037 197.018 197.018 517.614 0.021 714.623zM814.213 145.787c-166.632-166.632-437.784-166.652-604.417-0.021-166.67 166.661-166.652 437.831 0 604.463 166.632 166.623 437.766 166.643 604.437-0.021 166.632-166.632 166.614-437.804-0.021-604.426zM323.508 584.771c0 32.604 26.453 59.065 59.065 59.065 32.604 0 59.055-26.453 59.055-59.065 0-32.633-26.453-59.085-59.055-59.085-32.615 0-59.065 26.453-59.065 59.085zM591.325 584.771c0 32.604 26.481 59.065 59.085 59.065s59.065-26.453 59.065-59.065c0-32.633-26.453-59.085-59.065-59.085-32.604 0-59.085 26.453-59.085 59.085zM730.965 342.852c-36.605-84.651-122.332-139.343-218.392-139.343-98.119 0-184.351 54.97-219.688 140.049-6.058 14.572 0.847 31.299 15.431 37.348 3.582 1.486 7.296 2.189 10.953 2.189 11.2 0 21.831-6.628 26.394-17.622 26.453-63.676 91.965-104.814 166.909-104.814 73.248 0 138.381 41.167 165.935 104.882 6.269 14.489 23.089 21.165 37.567 14.888 14.489-6.269 21.154-23.089 14.888-37.577z" />
<glyph unicode="&#xe611;" glyph-name="rising10" horiz-adv-x="1234" d="M344.021 106.523c10.497-12.705 29.212-14.384 41.761-3.791 12.573 10.593 14.264 29.548 3.755 42.241-44.592 53.854-69.114 122.331-69.114 192.693 0 165.832 133.561 300.748 297.749 300.748 164.152 0 297.713-134.916 297.713-300.748 0-70.409-24.557-138.827-69.114-192.741-10.533-12.705-8.854-31.6 3.731-42.241 5.543-4.631 12.309-6.91 18.991-6.91 8.494 0 16.939 3.671 22.782 10.713 53.494 64.687 82.946 146.757 82.946 231.191 0 198.871-160.193 360.684-357.049 360.684-196.904 0-357.085-161.813-357.085-360.684 0.012-84.446 29.476-166.456 82.934-231.155zM588.516 808.408c0-16.544 13.268-29.968 29.668-29.968 16.364 0 29.668 13.424 29.668 29.968v104.18c0 2.603-0.432 5.099-1.056 7.498v9.945c0 16.556-13.268 29.968-29.668 29.968-16.364 0-29.668-13.412-29.668-29.968v-104.108c0-2.603 0.432-5.075 1.056-7.474v-10.041zM960.645 653.649c0.012 0 0.024 0 0.024 0 0.012 0 0.024 0 0.036 0 7.582 0 15.164 2.951 20.97 8.782l81.050 81.89c11.577 11.745 11.577 30.7 0 42.361-5.794 5.866-13.388 8.806-20.994 8.794-7.594 0.012-15.188-2.927-20.982-8.794l-81.086-81.89c-11.577-11.685-11.577-30.64-0.024-42.361 5.818-5.83 13.424-8.782 21.006-8.782zM253.673 661.399c5.782-5.83 13.388-8.782 20.97-8.782s15.2 2.951 20.982 8.782c0.204 0.204 0.324 0.432 0.516 0.648 0.156 0.144 0.324 0.24 0.48 0.384 11.589 11.733 11.589 30.688 0 42.361l-81.086 81.89c-11.553 11.745-30.364 11.745-41.941 0-0.18-0.192-0.3-0.396-0.48-0.588-0.168-0.168-0.348-0.264-0.516-0.432-11.589-11.685-11.589-30.64 0-42.361l81.074-81.902zM154.063 315.903c5.746 5.459 9.382 13.161 9.382 21.762 0 16.484-13.268 29.908-29.668 29.908h-103.053c-8.326 0-15.824-3.491-21.222-9.058-5.806-5.471-9.501-13.208-9.501-21.87 0-16.556 13.268-29.968 29.632-29.968h103.077c8.41 0 15.956 3.551 21.354 9.226zM1204.564 366.602h-103.089c-16.4 0-29.668-13.412-29.668-29.956 0-16.556 13.268-29.968 29.668-29.968h103.089c16.364 0 29.668 13.412 29.668 29.968 0 16.544-13.304 29.956-29.668 29.956zM1153.026-4.064h-1071.819c-16.4 0-29.668-13.484-29.668-29.968 0-16.556 13.268-29.968 29.668-29.968h1071.819c16.364 0 29.668 13.412 29.668 29.968 0 16.484-13.304 29.968-29.668 29.968z" />
<glyph unicode="&#xe612;" glyph-name="wheelbarrow" horiz-adv-x="992" d="M691.308 704.12l-435.475 255.88-255.833-435.523 435.427-255.833 255.88 435.475zM293.186 776.962l231.536-150.946-66.816-102.448-231.536 150.946 66.816 102.448zM988.559 684.127c-6.313-10.953-18.94-15.688-27.884-10.474-29.319 16.931-58.685 33.862-87.956 50.793-12.674 7.318-11.479 9.709-18.94-3.109-118.853-205.9-237.801-411.752-356.654-617.748-16.070-27.74-11.814-26.879-39.602-10.857l-271.472 156.781c-17.266 9.9-24.44 30.275-15.879 45.006 8.561 14.779 29.653 18.796 46.967 8.8 73.416-42.471 146.832-84.799 220.296-127.223 24.918-14.396 21.044-14.97 35.441 9.9l333.027 576.903c4.639 7.892 9.087 15.783 13.631 23.627 10.187 17.553 7.318 17.696 24.918 7.509l139.18-80.351c9.087-5.261 11.287-18.509 4.926-29.558zM665.433 175.715c-66.194 0-119.857-53.615-119.857-119.857 0-66.194 53.663-119.857 119.857-119.857s119.857 53.711 119.857 119.857-53.663 119.857-119.857 119.857zM665.433-2.923c-32.475 0-58.733 26.305-58.733 58.781 0 32.427 26.258 58.733 58.733 58.733 32.427 0 58.733-26.305 58.733-58.733 0-32.475-26.305-58.781-58.733-58.781zM337.14 709.476l108.187-70.546-31.232-47.876-108.187 70.546 31.232 47.876z" />
<glyph unicode="&#xe613;" glyph-name="windows5" d="M640 960h-640v-640h320v320h320zM384 576h640v-640h-640v640z" />
<glyph unicode="&#xe614;" glyph-name="share4" horiz-adv-x="910" d="M739.556 277.333c-39.094 0-75.002-13.289-103.777-35.408l-296.914 178.142c1.49 9.114 2.469 18.409 2.469 27.932 0 9.546-0.978 18.819-2.469 27.944l296.914 178.142c28.774-22.141 64.683-35.419 103.777-35.419 94.242 0 170.667 76.425 170.667 170.667s-76.425 170.667-170.667 170.667-170.667-76.425-170.667-170.667c0-9.523 0.978-18.819 2.492-27.932l-296.914-178.142c-28.774 22.118-64.683 35.408-103.799 35.408-94.242 0-170.667-76.425-170.667-170.667s76.425-170.667 170.667-170.667c39.117 0 75.025 13.278 103.799 35.419l296.914-178.142c-1.513-9.125-2.492-18.398-2.492-27.944 0-94.242 76.425-170.667 170.667-170.667s170.667 76.425 170.667 170.667-76.425 170.667-170.667 170.667z" />
<glyph unicode="&#xe615;" glyph-name="weight3" d="M606.048 396.295c-30.797 0-52.814-26.063-52.814-67.228 0-34.862 17.915-63.937 52.462-63.937 20.168 0 38.189 12.513 44.842 33.068 1.848 5.509 2.534 11.773 2.534 17.282v31.924c0 5.509-0.334 10.296-1.813 14.308-5.913 19.165-21.277 34.582-45.212 34.582zM875.452 715.837h-228.292v63.69c0 74.566-60.646 135.211-135.16 135.211-74.566 0-135.211-60.646-135.211-135.211v-63.69h-228.241l-124.459-734.577h975.84l-124.477 734.577zM426.575 779.527c0 47.13 38.348 85.425 85.425 85.425s85.389-38.295 85.389-85.425v-51.477h-170.815v51.477zM474.11 239.859l-81.149 121.521-23.881-27.19v-94.33h-31.977v247.511h31.977v-119.338h1.126c6.6 9.574 13.182 18.356 19.429 26.417l75.692 92.922h39.633l-89.649-105.030 96.635-142.481h-37.837zM685.437 369.105v-103.165c0-41.163-8.429-65.714-25.325-81.535-17.687-15.768-42.643-21.295-65.046-21.295-21.347 0-44.825 5.121-59.115 14.642l8.042 25.007c11.773-7.708 30.13-14.308 52.216-14.308 32.998 0 57.267 17.229 57.267 62.389v19.482h-0.722c-9.591-16.508-29.003-29.725-56.545-29.725-44.102 0-75.692 37.45-75.692 86.675 0 60.258 39.299 93.996 80.409 93.996 30.868 0 47.359-15.768 55.471-30.428h0.722l1.126 26.767h28.599c-1.056-12.513-1.408-27.173-1.408-48.502z" />
<glyph unicode="&#xe616;" glyph-name="shape3" d="M153.973 867.221h528.843v-34.272h47.029v115.584h-47.029v-34.293h-528.843v34.293h-47.051v-115.584h47.051zM919.808 718.944v47.029h-115.605v-47.029h34.293v-724.459h-34.293v-47.019h115.605v47.019h-34.283v724.459zM104.192-52.533h628.395v818.507h-628.395v-818.507zM155.147 715.008h526.485v-716.608h-526.485v716.608z" />
<glyph unicode="&#xe617;" glyph-name="transport" horiz-adv-x="713" d="M280.489 612.41c-51.693 0-150.308-127.2-150.308-127.2s-56.465-9.468-93.401-31.613c-36.951-22.176-22.161-110.835-22.161-110.835h57.23c0 36.705 29.748 66.514 66.514 66.514s66.483-29.762 66.483-66.514h274.266c0 36.705 29.762 66.514 66.498 66.514 36.691 0 66.467-29.762 66.467-66.514h89.53v269.647c-29.594 0-369.395 0-421.119 0zM66.465 421.74h-30.664v19.409h30.664v-19.409zM378.171 496.558h-216.516c0 0 77.066 97.866 113.757 97.866 36.705 0 102.76 0 102.76 0v-97.866zM682.919 382.97h-10.354v122.321h10.369l-0.014-122.321zM136.757 401.964c-32.744 0-59.172-26.473-59.172-59.172 0-32.713 26.443-59.202 59.172-59.202 32.682 0 59.157 26.489 59.157 59.202 0.014 32.699-26.489 59.172-59.157 59.172zM136.757 316.839c-14.345 0-25.939 11.654-25.939 25.954s11.669 25.893 25.939 25.893c14.3 0 25.908-11.639 25.908-25.893 0.014-14.3-11.623-25.954-25.908-25.954zM543.605 401.964c-32.713 0-59.188-26.473-59.188-59.172 0-32.713 26.489-59.202 59.188-59.202s59.188 26.489 59.188 59.202c0.014 32.699-26.473 59.172-59.188 59.172zM543.591 316.839c-14.345 0-25.939 11.654-25.939 25.954s11.669 25.893 25.939 25.893 25.923-11.639 25.923-25.893c0.031-14.3-11.623-25.954-25.923-25.954zM208.975 337.287h273.669v-19.409h-273.669v19.409z" />
<glyph unicode="&#xe618;" glyph-name="ruler4" d="M518.881 606.549l149.608-149.661 0.211 0.175-0.175-0.194h-0.035l0.757-1.337 24.639-24.655 297.017 297.017c14.132 14.149 14.132 37.222-0.035 51.371l-149.573 149.626c-14.219 14.184-37.274 14.167-51.389 0l-297.017-296.998 25.606-25.676 0.387 0.334zM854.193 812.543c8.975 9.063 24.744 9.098 33.825 0.035l61.895-61.86-33.755-33.825-61.965 61.843c-9.275 9.345-9.24 24.498 0 33.806zM804.599 762.95c8.853 8.923 24.674 9.028 33.771-0.035l61.93-61.86-33.879-33.86-61.86 61.895c-4.523 4.523-7.004 10.56-7.004 16.948s2.517 12.408 7.039 16.913zM749.937 708.323c9.028 9.098 25.026 9.081 34.001-0.070l61.79-61.772-33.86-33.806-61.895 61.843c-9.292 9.415-9.275 24.533-0.035 33.806zM653.671 698.326c9.081 9.063 24.885 9.063 33.895-0.089l104.978-104.924-33.844-33.844-105.013 105.030c-9.31 9.31-9.31 24.48-0.019 33.825zM637.128 595.514c9.046 8.993 24.762 9.011 33.806-0.019l61.913-61.86-33.879-33.879-61.913 61.895c-4.523 4.523-7.004 10.541-6.969 16.931 0 6.423 2.517 12.424 7.039 16.931zM899.51 190.158l-725.355 725.373c-16.191 16.191-42.572 16.191-58.762 0.019l-80.743-80.778c-16.191-16.209-16.191-42.554 0-58.727l725.355-725.426c3.343-3.308 11.14-11.087 212.471-92.641 7.884-3.238 16.948-1.267 22.808 4.857 5.913 6.196 7.427 15.311 3.89 23.037-88.874 193.535-96.706 201.384-99.662 204.287zM154.725 714.711l-90.722 90.669 80.743 80.762 90.669-90.669-80.691-80.762zM809.825 71.049l70.132 70.132c13.393-26.856 36.026-74.654 59.343-124.846-51.829 21.347-101.457 42.168-129.475 54.715zM484.299 272.628l0.317 0.37 0.019-0.019 0.229 0.229-149.661 149.696-0.229-0.229-25.641 25.66-259.601-259.548c-14.149-14.149-14.149-37.204 0.019-51.354l149.626-149.608c14.149-14.219 37.187-14.203 51.389 0l259.565 259.53-25.695 25.641-0.334-0.37zM244.514 50.124l-105.083 104.942c-9.186 9.45-9.17 24.533-0.089 33.755 9.17 9.221 25.061 9.17 34.054 0l104.942-104.942-33.825-33.755zM305.723 111.281l-57.601 57.548c-9.345 9.31-9.363 24.498-0.054 33.86 9.17 9.116 24.832 9.046 33.879 0l47.077-47.077 11.017-10.031-34.317-34.3zM360.245 165.819l-57.566 57.583c-4.488 4.47-7.022 10.49-7.022 16.894s2.499 12.443 7.039 16.966c9.046 9.063 24.779 9.028 33.825 0l57.566-57.601-33.844-33.844zM409.944 215.5l-57.601 57.566c-9.24 9.363-9.24 24.515-0.054 33.79 9.221 9.17 24.867 9.081 33.914 0.054l57.566-57.583-33.825-33.825z" />
<glyph unicode="&#xe619;" glyph-name="right218" d="M368.94-50.060l498.060 498.060-498.060 498.060-141.292-141.298 356.767-356.762-356.767-356.762z" />
<glyph unicode="&#xe61a;" glyph-name="target20" d="M1024 512h-100.924c-27.64 178.24-168.836 319.436-347.076 347.076v100.924h-128v-100.924c-178.24-27.64-319.436-168.836-347.076-347.076h-100.924v-128h100.924c27.64-178.24 168.836-319.436 347.076-347.076v-100.924h128v100.924c178.24 27.64 319.436 168.836 347.076 347.076h100.924v128zM792.822 512h-99.762c-19.286 54.55-62.51 97.778-117.060 117.060v99.762c107.514-24.49 192.332-109.31 216.822-216.822zM512 384c-35.346 0-64 28.654-64 64s28.654 64 64 64 64-28.654 64-64-28.654-64-64-64zM448 728.822v-99.762c-54.55-19.282-97.778-62.51-117.060-117.060h-99.762c24.49 107.512 109.31 192.332 216.822 216.822zM231.178 384h99.762c19.282-54.55 62.51-97.778 117.060-117.058v-99.764c-107.512 24.49-192.332 109.308-216.822 216.822zM576 167.178v99.764c54.55 19.282 97.778 62.508 117.060 117.058h99.762c-24.49-107.514-109.308-192.332-216.822-216.822z" />
<glyph unicode="&#xe61b;" glyph-name="recycle23" d="M299.004 160.426c0-36.53-29.611-66.142-66.142-66.142s-66.142 29.611-66.142 66.142c0 36.53 29.611 66.142 66.142 66.142s66.142-29.611 66.142-66.142zM927.589 160.426c0-36.53-29.611-66.142-66.142-66.142s-66.142 29.611-66.142 66.142c0 36.53 29.611 66.142 66.142 66.142s66.142-29.611 66.142-66.142zM334.309 669.598v-477.367h450.963c11.902 31.938 42.638 54.707 78.644 54.707s66.675-22.804 78.644-54.707h72.010v477.367h-680.261zM624.916 449.9l-15.235 7.3-7.367-15.269c0 0-2.601-5.534-6.502-13.802l-33.738-71.544 54.107 0.734-0.399-44.205-57.807 2.3-4.167 0.933c-5.734 4.401-21.103 18.57-30.603 27.304-10.601 9.768-17.202 15.735-21.504 19.469 8.867 18.835 24.671 52.374 35.372 74.978l6.502 13.802c3.634 7.533 5.934 12.535 5.934 12.535l7.035 15.269-18.935 8.934c21.303 8.001 50.607 19.002 65.709 24.671l24.237-64.709c-1.666 0.833-2.633 1.3-2.633 1.3zM608.381 552.882l35.038 46.006 3.701 3.334c7.234 2.169 27.337 6.634 39.838 9.402 14.003 3.067 22.535 5.001 28.136 6.435 4.568-8.001 10.668-18.735 17.269-30.071 11.669-20.47 24.537-42.973 31.505-55.206l15.168-26.536 18.37 10.534c-5.668-22.037-13.336-52.308-17.369-68.043l-67.009 17.202c1.633 0.9 2.601 1.467 2.601 1.467l14.769 8.401-55.34 96.58-30.537-45.14-36.139 25.637zM835.879 326.115c-4.299-13.869-6.901-22.337-8.401-27.904h-128.852v-21.070c-16.337 15.835-38.805 37.604-50.473 48.939l48.241 49.508v-19.937h111.149l-24.303 49.573 40.172 18.57 22.602-53.407 1.233-6.135c-1.867-7.835-7.735-26.403-11.368-38.14zM12.13 395.126v-131.284h110.382l34.305-11.934v-2.968h144.686v277.439h-208.829l-80.544-131.251zM262.633 502.807v-97.747h-201.861l56.507 97.747h145.354zM1.462 254.906v-54.141h155.221l0.134 0.233v38.973l-40.573 14.935z" />
<glyph unicode="&#xe61c;" glyph-name="print5" d="M256 896h512v-128h-512v128zM960 704h-896c-35.2 0-64-28.8-64-64v-320c0-35.2 28.796-64 64-64h192v-256h512v256h192c35.2 0 64 28.8 64 64v320c0 35.2-28.8 64-64 64zM704 64h-384v320h384v-320zM974.4 608c0-25.626-20.774-46.4-46.398-46.4s-46.402 20.774-46.402 46.4 20.778 46.4 46.402 46.4c25.626 0 46.398-20.774 46.398-46.4z" />
<glyph unicode="&#xe61d;" glyph-name="pounds9" d="M1023.076 131.035c-340.706 316.965-681.448-316.965-1022.154 0 0 211.32 0 422.612 0 633.965 340.706-316.965 681.448 316.934 1022.154 0 0-211.353 0-422.644 0-633.965zM33.899 136.245c318.747-240.996 637.462 296.49 956.21 55.523 0 189.326 0 378.658 0 568.021-318.747 241.031-637.462-296.49-956.21-55.557 0-189.326 0-378.658 0-567.983zM512 669.409c-122.294-61.397-221.444-184.978-221.444-305.062 0-124.471 99.15-199.22 221.444-137.795 122.294 61.397 221.444 184.978 221.444 305.062 0 124.504-99.15 199.255-221.444 137.795zM512 253.591c-107.392-52.986-194.409 8.178-194.409 117.088 0 105.874 87.081 218.74 194.409 271.762 107.356 53.019 194.409-8.178 194.409-117.088 0-105.874-87.015-218.74-194.409-271.762zM409.652 281.982c15.2 16.818 27.432 33.861 36.632 50.778 9.268 16.981 13.915 32.973 13.915 48.007 0 4.32-0.825 8.937-2.637 13.915-1.022 3.165-2.839 7.353-5.408 12.494-14.805-6.627-29.642-13.058-44.547-19.059 0 7.023 0 13.98 0 21.004 10.52 4.288 21.105 8.771 31.62 13.321 0-0.692-2.21 2.542-6.726 9.628-4.517 7.156-7.549 12.429-8.937 15.959-1.353 3.366-2.474 7.42-3.43 12.167-0.922 4.783-1.416 10.121-1.416 16.023 0 20.938 8.541 43.229 25.586 67.296 17.048 24.038 41.482 43.485 73.297 58.395 29.939 13.98 52.622 16.058 67.99 6.332s23.245-29.608 23.705-59.385c-12.429-5.145-24.862-10.551-37.29-16.092 0 20.278-4.783 33.598-14.243 39.864-9.463 6.199-23.874 4.813-43.229-4.122-18.794-8.771-33.005-20.247-42.7-34.586-9.664-14.312-14.473-28.355-14.473-42.504 0-6.956 1.486-13.484 4.583-19.518 3.035-6.035 9.4-16.29 19.191-30.73 22.025 10.188 44.052 20.512 66.078 30.663 0-7.023 0-14.015 0-21.004-18.961-8.74-37.949-17.574-57.011-26.377 1.317-5.572 2.311-9.989 2.966-13.122 0.594-3.232 0.856-6.69 0.856-10.423 0-13.42-4.026-28.555-12.1-45.406-8.044-16.818-20.672-35.608-37.818-56.023 9.268 8.771 18.429 16.617 27.368 23.475 8.971 6.824 17.772 12.299 26.41 16.256 9.664 4.517 22.49 8.115 38.378 10.683 15.862 2.571 26.347 4.845 31.292 7.123 6.267 2.839 12.070 6.593 17.279 11.309 3.266 2.866 8.141 8.115 14.706 15.595 5.572-6.69 11.145-13.387 16.716-20.213-7.549-9.070-14.278-16.423-20.114-21.896-9.826-8.903-20.213-15.794-31.226-20.741-8.044-3.593-21.531-6.759-40.556-9.366-18.961-2.637-33.959-6.528-44.974-11.637-10.221-4.716-19.915-10.814-29.013-18.401-5.342-4.547-12.267-11.212-20.741-19.915-6.627 6.69-13.255 13.42-19.981 20.213z" />
<glyph unicode="&#xe61e;" glyph-name="piggy10" d="M967.342 448c-40.265 0-53.586 29.65-60.8 43.776-18.633 36.48-48.128 92.334-99.621 122.030-19.794-31.662-27.721-47.534-35.621-97.024-31.662 160.384 27.301 267.776 35.84 315.182-58.039-14.72-142.766-69.678-170.194-143.744-14.254 8.448-56.933 15.79-69.586 15.79h-148.709c-145.637 0-295.406-104.055-327.095-274.094-21.943-5.851-48.887 7.799-48.887 39.433 0 43.346 54.016 41.984 56.649 22.226 0 63.406-99.319 53.806-99.319-28.242 0-83.703 52.197-98.478 85.367-99.429 0-0.411-0.027-0.814-0.027-1.234 0-89.335 43.136-170.487 113.408-231.25 10.030-8.695 30.51-30.373 23.634-65.335-6.885-34.944-18.606-92.928-18.606-92.928l185.728-37.157c0 0 6.784 27.136 11.392 56.933 4.608 29.769 28.553 34.002 56.704 31.36 17.838-1.627 35.941-2.935 54.4-2.935 22.528 0 44.59 1.573 66.121 4.379 12.59 1.673 37.522 2.213 43.255-24.192 5.723-26.368 13.12-65.536 13.12-65.536l185.71 37.147c0 0-15.954 73.993-20.133 96.485-4.187 22.482 12.297 39.68 20.352 46.747 27.447 24.082 50.304 51.666 62.427 78.674 7.25 16.256 32.128 39.589 67.163 39.589 27.767 0 73.984 0 73.984 0v213.349h-56.658zM789.339 320c-35.337 0-64 28.672-64 64s28.663 64 64 64c35.319 0 64-28.672 64-64s-28.681-64-64-64zM313.6 746.67c-9.298 19.456-14.93 41.006-14.93 64 0 82.478 66.853 149.33 149.33 149.33s149.339-66.853 149.339-149.33c0-22.994-5.641-44.544-14.939-64h-268.8z" />
<glyph unicode="&#xe61f;" glyph-name="packaging" d="M909.696 579.619l-1.394-0.64v4.028l-0.895-0.344 0.575 1.432-198.667 80.939-17.737-23.070 180.165-73.393-339.38-133.831v33.212c-15.562 0.114-30.499 7.495-39.964 19.861l-139.598 181.571-228.67-86.86-1.304 0.499v-0.243l-105.249-154.867 105.249 9.285v-346.862l378.703-149.38v-0.588h28.044v0.588l378.703 149.38v238.837l98.139 42.177-96.719 208.273zM501.539-28.883l-350.66 138.294v432.375l350.66-138.307v-432.364zM880.244 109.412l-350.66-138.294v432.364l77.102-203.949 273.559 117.59v-207.71zM521.092 508.463c1.65-2.162 4.221-3.442 6.943-3.442s5.293 1.278 6.943 3.442l165.227 214.898c2.403 3.134 2.403 7.468 0.049 10.626-2.378 3.145-6.573 4.323-10.243 2.853l-109.379-43.186v253.224c0 4.861-3.927 8.773-8.773 8.773h-87.665c-4.846 0-8.773-3.912-8.773-8.773v-253.237l-109.405 43.186c-3.671 1.471-7.839 0.295-10.217-2.853-1.175-1.587-1.752-3.442-1.752-5.293 0-1.88 0.602-3.759 1.828-5.333l165.214-214.883z" />
<glyph unicode="&#xe620;" glyph-name="packages" d="M993.621 469.509l-87.666 47.46v245.811c0 12.323-6.766 23.742-17.627 29.577l-248.601 134.636c-10.045 5.418-22.022 5.418-32.066 0l-248.623-134.613c-10.812-5.907-17.627-17.253-17.627-29.577v-39.949l-30.251 16.393c-10.045 5.418-22.068 5.418-32.066 0l-248.601-134.636c-10.859-5.907-17.627-17.231-17.627-29.577v-306.664c0-12.348 6.766-23.742 17.627-29.601l248.646-134.636c4.999-2.698 10.487-4.092 15.998-4.092 5.487 0 11.022 1.396 15.998 4.092l135.473 73.387v-44.251c0-12.348 6.766-23.742 17.696-29.601l248.576-134.613c4.999-2.698 10.487-4.092 16.022-4.092 5.487 0 10.999 1.396 16.022 4.092l248.531 134.613c10.812 5.907 17.627 17.253 17.627 29.601v306.616c0.163 12.37-6.65 23.742-17.463 29.626zM706.584 600.657l-49.18-26.649v33.996l44.832 24.347v-15.441c0-5.883 1.675-11.394 4.35-16.255zM728.975 536.269l177.887-96.385-62.319-33.74-167.237 102.129 51.669 27.997zM838.661 553.43l-77.201 41.786c4.999 5.883 8.161 13.394 8.161 21.718v51.878l69.085 37.438-0.045-152.821zM623.709 859.141l177.933-96.361-62.271-33.74-167.354 102.129 51.692 27.973zM503.513 794.078l167.423-102.129-47.18-25.578-177.933 96.408 57.692 31.299zM295.141 671.37l46.274-25.112 131.613-71.225-62.271-33.718-167.354 102.035 51.738 28.020zM295.186 478.624l-177.981 96.408 57.761 31.276 167.354-102.081-0.907-0.488-46.227-25.112zM328.834 190.169v230.114l44.878 24.253v-15.462c0-4.186 0.86-8.117 2.232-11.766 4.813-12.789 17.021-21.858 31.461-21.858 2.511 0 4.999 0.349 7.37 0.837 15.022 3.395 26.253 16.789 26.253 32.789v51.947l69.109 37.438v-24.253l-45.738-24.742c-10.882-5.883-17.649-17.253-17.649-29.601v-185.839l-117.917-63.853zM729.023 343.547l-177.981 96.361 57.761 31.323 167.354-102.129-47.134-25.556zM943.882 153.244l-181.259-98.223v230.114l44.878 24.322v-15.462c0-18.603 15.068-33.649 33.649-33.649s33.649 15.044 33.649 33.649v51.901l69.085 37.414v-230.067z" />
<glyph unicode="&#xe621;" glyph-name="object12" d="M28.405 941.387h752.224v-752.224h-752.224v752.224zM829.045 941.312v-58.048h54.432v-634.901h-54.432v-58.059h166.912v58.059h-54.421v634.901h54.421v58.048zM28.043 121.525v-166.912h58.059v54.432h637.173v-54.432h58.059v166.912h-58.059v-54.421h-637.173v54.421z" />
<glyph unicode="&#xe622;" glyph-name="logistics9" d="M981.416 126.624c-0.838 6.241-6.548 10.624-12.823 9.788l-545.986-73.363c-6.241-0.838-10.491-6.561-9.788-12.826 2.4-21.279-2.184-41.482-13.375-57.269-11.501-16.227-28.172-26.554-46.954-29.077-39.212-5.235-75.329 22.329-80.597 61.503-2.55 18.979 2.444 37.814 14.059 53.041s28.466 25.010 47.448 27.556c13.423 1.803 23.19 0.715 33.273-3.304 1.222-0.742 2.567-1.262 4.010-1.509 5.256-1.463 11.551 1.241 13.405 7.377 3.776 12.485-93.924 702.959-93.924 702.959-11.041 82.19-86.887 140.082-169.089 129.032-27.593-3.707-53.533-14.93-75.004-32.445-4.883-3.986-5.61-11.164-1.626-16.055 3.979-4.879 11.164-5.61 16.055-1.626 18.201 14.851 40.201 24.364 63.618 27.512 69.738 9.366 134.068-39.739 143.437-109.461l91.382-679.902c-8.658 1.485-17.779 1.48-28.579 0.032-25.019-3.357-47.229-16.262-62.542-36.328-15.308-20.065-21.896-44.897-18.53-69.919 6.37-47.398 47.028-81.932 93.591-81.927 4.173 0 8.403 0.278 12.654 0.85 25.127 3.372 47.334 17.048 62.533 38.497 12.823 18.093 19.234 39.823 18.628 62.156l534.94 71.876c6.234 0.85 10.614 6.589 9.775 12.835zM474.731 113.326c-26.559 0-50.053 19.597-54.11 46.507l-28.753 190.636c-0.94 6.23 3.347 12.041 9.577 12.983 6.221 0.951 12.041-3.347 12.983-9.577l28.753-190.636c2.581-17.089 18.636-29.108 35.735-26.819l482.203 64.786c8.205 1.103 15.513 5.366 20.585 12.006 5.066 6.644 7.252 14.822 6.15 23.021l-33.112 246.414c-2.29 17.030-18.093 29.006-35.033 26.731l-482.203-64.786c-14.242-1.922-28.414 1.857-39.9 10.63-11.485 8.763-18.867 21.438-20.781 35.68l-29.821 221.977c-3.964 29.497 16.81 56.718 46.302 60.68l317.213 42.619c29.479 3.986 56.749-16.796 60.761-46.274l24.406-178.911c0.85-6.241-3.52-11.994-9.763-12.845-6.221-0.872-11.994 3.52-12.851 9.759l-24.406 178.911c-2.323 17.039-18.115 29.011-35.114 26.744l-317.213-42.619c-8.203-1.103-15.515-5.366-20.581-12.006-5.069-6.644-7.252-14.818-6.15-23.021l29.821-221.971c1.103-8.203 5.366-15.515 12.006-20.581 6.649-5.069 14.83-7.246 23.021-6.15l482.203 64.786c29.51 3.979 56.718-16.81 60.68-46.309l33.112-246.414c1.917-14.242-1.857-28.414-10.624-39.9s-21.438-18.867-35.68-20.781l-482.203-64.786c-2.425-0.328-4.836-0.487-7.224-0.487z" />
<glyph unicode="&#xe623;" glyph-name="logistics3" d="M379.421 331.964c-47.267 0-85.464-38.335-85.464-85.601 0-47.128 38.198-85.464 85.464-85.464s85.463 38.336 85.463 85.464c0 47.267-38.196 85.601-85.463 85.601zM379.421 203.631c-23.634 0-42.733 19.237-42.733 42.733 0 23.633 19.099 42.732 42.733 42.732 23.633 0 42.732-19.099 42.732-42.732 0-23.497-19.099-42.733-42.732-42.733zM1024 395.191v-91.256c0-22.766-18.455-41.22-41.22-41.22h-44.106c-7.969 54.685-55.098 96.731-111.982 96.731-56.746 0-103.876-42.045-111.845-96.731h-223.552c-7.969 54.685-55.098 96.731-111.845 96.731-56.746 0-103.876-42.045-111.844-96.731h-55.236c-22.766 0-41.22 18.455-41.22 41.22v91.256h852.85zM826.801 331.964c-47.267 0-85.601-38.335-85.601-85.601 0-47.128 38.336-85.464 85.601-85.464 47.128 0 85.463 38.336 85.463 85.464 0 47.267-38.335 85.601-85.463 85.601zM826.801 203.631c-23.634 0-42.733 19.237-42.733 42.733 0 23.633 19.099 42.732 42.733 42.732 23.496 0 42.732-19.099 42.732-42.732 0-23.497-19.236-42.733-42.732-42.733zM1007.758 487.090l-161.996 160.211c-10.305 10.167-24.183 15.939-38.61 15.939h-81.754v30.641c0 22.808-18.413 41.22-41.22 41.22h-471.839c-22.671 0-41.22-18.413-41.22-41.22v-6.459l-167.272-19.277 296.401-38.597-300.25-29.827 299.192-42.538-299.192-25.942 171.132-32.276-0.012-80.987h852.851v30.092c0 14.702-5.908 28.716-16.214 39.021zM937.134 481.732h-156.774c-3.572 0-6.459 2.885-6.459 6.458v121.051c0 3.572 2.885 6.459 6.459 6.459h29.816c1.649 0 3.297-0.687 4.535-1.787l126.821-121.051c4.257-3.985 1.372-11.13-4.398-11.13z" />
<glyph unicode="&#xe624;" glyph-name="logistics2" d="M655.724 525.193c-1.234 10.231-5.12 19.564-11.098 27.355l41.034 254.659c1.527 9.475-4.55 18.51-13.901 20.669l-0.458 0.105c-9.35 2.159-18.772-3.299-21.554-12.483l-74.752-246.87c-18.422-9.262-31.212-28.145-31.212-50.136 0-31.052 25.251-56.316 56.302-56.316 5.784 0 11.256 1.129 16.512 2.756l156.166-81.156c8.591-4.465 19.169-1.676 24.442 6.445l0.236 0.362c5.274 8.12 3.519 18.917-4.055 24.95l-137.663 109.66zM572.274 518.492c0 15.331 12.479 27.811 27.811 27.811 15.345 0 27.825-12.479 27.825-27.811 0-15.345-12.479-27.825-27.825-27.825-15.331 0-27.811 12.479-27.811 27.825zM1024 518.492c0-188.5-123.699-348.584-294.163-403.526l-0.008 60.364c138.467 52.531 237.187 186.506 237.187 343.163 0 202.323-164.608 366.931-366.931 366.931s-366.931-164.608-366.931-366.931c0-20.297 1.731-40.189 4.915-59.599h-57.627c-2.755 19.487-4.273 39.365-4.273 59.599 0 233.751 190.164 423.916 423.916 423.916s423.916-190.166 423.916-423.916zM673.981 216.431l-130.492 129.069c-8.262 8.262-19.517 12.822-31.057 12.822h-65.816v24.645c0 18.378-14.958 33.193-33.336 33.193h-380.082c-18.377 0-33.193-14.816-33.193-33.193v-222.237h687.085v24.219c-0.001 11.823-4.703 23.222-13.108 31.483zM617.14 212.157h-126.362c-2.849 0-5.129 2.278-5.129 5.129v97.586c0 2.848 2.278 5.129 5.129 5.129h24.076c1.283 0 2.707-0.57 3.704-1.425l102.144-97.586c3.418-3.133 1.139-8.833-3.562-8.833zM687.105 142.372v-73.522c0-18.341-14.868-33.21-33.21-33.21h-35.534c-6.42 44.058-44.39 77.932-90.218 77.932-45.719 0-83.688-33.874-90.108-77.932h-180.109c-6.42 44.058-44.39 77.932-90.108 77.932s-83.688-33.874-90.108-77.932h-44.5c-18.341 0.001-33.21 14.868-33.21 33.21v73.522h687.105zM528.246 91.352c-38.036 0-68.95-30.772-68.95-68.809s30.913-68.951 68.95-68.951c38.036 0 68.809 30.915 68.809 68.951s-30.772 68.809-68.809 68.809zM528.246-11.931c-19.089 0-34.476 15.386-34.476 34.476 0 18.948 15.386 34.476 34.476 34.476 18.948 0 34.333-15.528 34.333-34.476 0-19.091-15.386-34.476-34.333-34.476zM167.822 91.352c-38.036 0-68.951-30.772-68.951-68.809s30.915-68.951 68.951-68.951 68.809 30.915 68.809 68.951c0 38.036-30.772 68.809-68.809 68.809zM167.822-11.931c-19.090 0-34.476 15.386-34.476 34.476 0 18.948 15.386 34.476 34.476 34.476 18.948 0 34.476-15.528 34.476-34.476 0-19.091-15.528-34.476-34.476-34.476z" />
<glyph unicode="&#xe625;" glyph-name="locked14" d="M1001.498 733.898l-118.464 148.626c-11.191 14.040-28.168 22.218-46.121 22.218h-568.059c-17.953 0-34.93-8.178-46.12-22.217l-118.465-148.627c-12.376-15.526-22.502-44.477-22.502-64.333v-108.114c25.837 21.316 58.93 34.136 94.963 34.136h52.916c82.406 0 149.448-67.043 149.448-149.448v-87.374c40.764-10.958 71.506-50.225 71.506-92.442v-183.418h499.676c40.716 0 73.723 33.007 73.723 73.723l0.001 512.937c0 19.855-10.126 48.805-22.502 64.332zM142.982 735.156l39.231 49.22h267.67l26.413 43.429h-259.466l28.964 36.338c5.627 7.060 14.031 11.109 23.060 11.109h568.059c9.028 0 17.434-4.049 23.060-11.109l28.964-36.338h-264.090l14.744-43.429h283.96l39.231-49.22h-819.8zM364.643 316.748c-9.902 1.742-19.844 3.155-29.784 4.575v124.818c0 58.021-47.197 105.219-105.219 105.219h-52.91c-58.021 0-105.219-47.197-105.219-105.219v-124.818c-9.942-1.42-19.885-2.833-29.787-4.576-23.124-4.312-41.72-27.466-41.724-50.417 0-70.185 0-140.369 0-210.552 0.003-22.953 18.601-46.117 41.723-50.418 106.816-18.801 216.104-18.801 322.92 0 23.124 4.311 41.716 27.468 41.723 50.418 0 70.184 0 140.367 0 210.552-0.001 22.948-18.605 46.115-41.723 50.418zM141.656 446.14c0 19.345 15.729 35.073 35.073 35.073h52.911c19.345 0 35.073-15.729 35.073-35.073v-117.548c-40.982 2.714-82.076 2.715-123.057 0.001v117.546zM230.22 99.369h-54.072l14.54 58.89c-12.285 4.957-20.975 16.946-20.975 31.007 0 18.486 14.986 33.472 33.472 33.472s33.472-14.986 33.472-33.472c0-14.061-8.691-26.051-20.977-31.007l14.541-58.89z" />
<glyph unicode="&#xe626;" glyph-name="list29" horiz-adv-x="1515" d="M285.984 576.582c-35.726 0-66.083-12.494-91.090-37.5-24.998-24.998-37.5-55.356-37.5-91.081 0-35.718 12.504-66.083 37.51-91.081s55.371-37.5 91.090-37.5c35.718 0 66.075 12.504 91.081 37.5 24.998 24.998 37.5 55.364 37.5 91.081 0 35.726-12.504 66.083-37.51 91.081-24.998 24.998-55.356 37.5-91.081 37.5zM285.992 919.494c-35.726 0-66.083-12.504-91.090-37.5-24.998-25.005-37.5-55.364-37.5-91.081 0-35.726 12.494-66.083 37.5-91.090 25.005-24.998 55.371-37.5 91.090-37.5s66.075 12.504 91.081 37.5c24.998 25.005 37.5 55.364 37.5 91.090 0 35.718-12.504 66.075-37.5 91.081-24.998 24.998-55.356 37.5-91.081 37.5zM285.992 233.681c-35.726 0-66.091-12.494-91.090-37.5s-37.5-55.364-37.5-91.081c0-35.735 12.494-66.083 37.5-91.090 25.005-24.998 55.371-37.5 91.090-37.5s66.075 12.504 91.081 37.5c24.998 25.005 37.5 55.356 37.5 91.090 0 35.718-12.504 66.083-37.5 91.081s-55.356 37.5-91.081 37.5zM1351.206 870.27c-4.258 4.233-9.263 6.355-15.075 6.355h-814.403c-5.804 0-10.827-2.113-15.068-6.355-4.242-4.251-6.364-9.263-6.364-15.068v-128.598c0-5.804 2.12-10.817 6.364-15.068 4.242-4.233 9.263-6.355 15.068-6.355h814.403c5.812 0 10.827 2.113 15.075 6.355 4.242 4.251 6.355 9.263 6.355 15.068v128.598c0 5.804-2.12 10.827-6.355 15.068zM1336.129 533.721h-814.403c-5.804 0-10.827-2.113-15.068-6.364-4.242-4.242-6.364-9.263-6.364-15.068v-128.598c0-5.796 2.12-10.817 6.364-15.060 4.242-4.251 9.263-6.364 15.068-6.364h814.403c5.812 0 10.827 2.113 15.075 6.364 4.242 4.242 6.355 9.263 6.355 15.060v128.598c0 5.804-2.12 10.835-6.355 15.068-4.258 4.242-9.263 6.364-15.075 6.364zM1336.129 190.819h-814.403c-5.804 0-10.827-2.12-15.068-6.364s-6.364-9.263-6.364-15.060v-128.598c0-5.812 2.12-10.827 6.364-15.075 4.242-4.233 9.263-6.346 15.068-6.346h814.403c5.812 0 10.827 2.113 15.075 6.346 4.242 4.251 6.355 9.263 6.355 15.075v128.598c0 5.796-2.12 10.827-6.355 15.060-4.258 4.233-9.263 6.364-15.075 6.364z" />
<glyph unicode="&#xe627;" glyph-name="last" d="M788.256 250.112c-262.016 0-474.24 212.384-474.24 474.24 0 86.24 24.736 166.016 64.992 235.616-218.368-62.976-379.008-261.984-379.008-500.608 0-288.992 234.24-523.36 523.264-523.36 238.624 0 437.76 160.736 500.736 379.008-69.76-40.128-149.504-64.896-235.744-64.896z" />
<glyph unicode="&#xe628;" glyph-name="invoice1" d="M943.905 949.897h-863.812c-30.742 0-55.679-24.936-55.679-55.679v-863.761c0-30.742 24.986-55.727 55.679-55.727h863.812c30.645 0 55.679 24.986 55.679 55.727v863.761c0 30.742-25.036 55.679-55.679 55.679zM939.724 34.59h-855.449v197.828h855.498v-197.828zM939.724 264.831h-855.449v385.917h855.498v-385.917zM939.724 699.342h-855.449v190.746h855.498v-190.746zM144.086 570.671h494.568v-52.925h-494.568v52.925zM752.375 572.589h109.734v-52.925h-109.734v52.925zM752.375 439.048h109.734v-53.023h-109.734v53.023zM144.086 437.129h494.568v-52.973h-494.568v52.973zM687.546 187.559h206.879v-69.796h-206.879v69.796z" />
<glyph unicode="&#xe629;" glyph-name="international12" d="M920.931 488.462c-30.762-34.529-60.896-71.726-81.928-123.048-9.573-23.699-32.332-39.081-57.915-39.081-25.74 0-48.497 15.382-58.227 39.237-24.328 59.642-61.211 100.291-96.996 139.528-8.945 9.888-17.892 19.776-26.68 29.978-0.471-0.157-0.786-0.314-1.256-0.471-34.843-10.515-61.681-56.658-45.516-94.17 10.986-25.74 88.049-20.874 81.457-76.276-5.492-45.358 53.833-57.286 74.865-55.090 21.032 2.511 53.363-34.529 37.039-50.852-16.165-16.323-46.771-16.951-42.062-59.013 1.256-12.242 38.296-10.673 38.296-29.193 0-18.676-19.148-39.866-4.394-61.367 3.139-4.708 6.435-8.317 9.887-11.142-70.94-65.292-165.581-105.313-269.325-105.313-219.258 0-397.553 178.294-397.553 397.553 0 66.546 16.48 129.326 45.516 184.572-0.157-71.412 37.981-130.739 55.873-148.631 58.385-58.227 142.981-39.864 153.81-88.676 10.986-48.655-58.071-48.812-53.519-86.008 4.708-37.354 94.639-47.242 74.551-81.614-26.524-45.672 17.892-48.968 5.023-105.312-6.906-30.762 37.51-36.727 53.99-13.341 12.556 17.893 10.044 39.866 35.314 66.703 30.918 32.96 102.644 38.295 94.639 92.758-13.655 90.403-101.546 104.527-139.841 125.716-43.475 23.855-32.803 81.143-42.22 108.452-13.184 38.767-57.915-10.83-81.772 11.771-39.237 37.039 7.063 89.462 40.022 88.362 69.528-2.198 90.874-69.843 116.456-67.488 24.955 2.198 41.121 37.039 45.516 55.56 9.261 40.337-15.695 22.287-25.74 43.318-13.498 28.093 47.398 54.932 70.941 75.649 3.61 3.139 6.278 6.121 7.69 8.946 7.063 13.811-2.198 24.326-17.892 33.901-31.389 18.991-88.676 34.058-91.343 63.721-1.571 18.207 33.274 26.995 72.98 28.564 6.592-0.314 13.027-0.942 19.619-1.569 3.296 18.676 8.632 37.039 15.852 54.618-18.991 2.511-38.295 3.767-57.915 3.767-250.177 0-453.74-203.562-453.74-453.74s203.565-453.74 453.742-453.74 453.741 203.564 453.741 453.741c0 33.901-3.767 67.018-10.986 98.721zM759.738 958.993c-128.090-12.109-215.816-136.221-193.462-262.925 22.705-128.704 141.37-168.32 200.259-312.794 5.307-13.019 23.638-13.084 28.941-0.064 65.281 160.236 204.088 191.507 204.088 358.244 0 127.721-109.56 229.851-239.826 217.539zM781.018 626.042c-63.74 0-115.412 51.671-115.412 115.412s51.671 115.412 115.412 115.412 115.412-51.672 115.412-115.412c0-63.74-51.672-115.412-115.412-115.412z" />
<glyph unicode="&#xe62a;" glyph-name="house28" d="M997.138 459.654c18.042 19.842 16.299 50.252-3.892 67.907l-444.778 389.184c-20.19 17.655-52.554 17.286-72.319-0.832l-446.286-409.102c-19.765-18.119-20.733-48.491-2.148-67.81l11.189-11.654c18.563-19.32 48.568-21.623 66.977-5.129l33.353 29.868v-437.285c0-26.828 21.739-48.548 48.548-48.548h173.966c26.811 0 48.548 21.72 48.548 48.548v305.926h221.895v-305.926c-0.387-26.811 18.795-48.53 45.607-48.53h184.361c26.811 0 48.548 21.72 48.548 48.548v431.111c0 0 9.215-8.071 20.577-18.061 11.342-9.969 35.173-1.975 53.215 17.886l12.641 13.9z" />
<glyph unicode="&#xe62b;" glyph-name="house149" horiz-adv-x="1488" d="M1188.796 10.783h-473.624v249.276h-224.348v-249.276h-174.493v398.841h-74.783v-473.624h1022.031v473.624h-74.783v-398.841zM565.607 185.276h74.783v-174.493h-74.783v174.493zM1045.936 960l-206.126-210.837v183.941h-249.276v-139.245l-20.291 14.458-570.243-390.765 42.202-61.696 526.495 360.951 496.308-360.378 43.922 60.724-298.358 216.82h29.265v49.282l27.595-20.266 176.886 183.268 387.948-482.922 56.062 46.714-442.39 549.952zM654.15 758.61h11.168v99.71h99.71v-200.742l-110.878 101.031z" />
<glyph unicode="&#xe62c;" glyph-name="home84" d="M896 512h128l-192 320h-320v128h-192v-128h-128l-192-320h128v-512h-128v-64h1024v64h-128v512zM448 256h-192v192h192v-192zM768 0h-192v384h192v-384z" />
<glyph unicode="&#xe62d;" glyph-name="hoist1" d="M612.414 400.586c0 0-40.042 382.718-190.774 382.718-171.282 0-242.094 0-242.094 0v-352.001c-26.471 0-48.586 0-61.823 0-61.823 0 0-218.808 0-218.808h38.366c2.627 54.34 47.581 97.786 102.644 97.786 55.008 0 99.963-43.446 102.592-97.786h125.154c-0.053 0.502-0.113 0.951-0.113 1.451 0 60.259 49.144 109.349 109.459 109.349 60.259 0 109.349-49.090 109.349-109.349 0-7.037-0.727-13.849-1.952-20.493h38.702l-64.447 202.389c-59.141-33.34-65.062 4.748-65.062 4.748zM417.452 388.468l-57.076 99.911h-123.701v237.795h174.746c51.043 0 79.246-71.093 93.988-130.792 9.381-38.145 38.253-176.697 40.827-206.967h-128.782zM596.327 310.618c-52.438 0-94.938-42.555-94.938-94.938 0-52.438 42.499-94.938 94.938-94.938 52.385 0 94.938 42.499 94.938 94.938 0 52.385-42.555 94.938-94.938 94.938zM596.327 160.613c-30.326 0-55.008 24.684-55.008 55.008s24.684 54.951 55.008 54.951 54.951-24.629 54.951-54.951-24.629-55.008-54.951-55.008zM256.056 293.25c-49.873 0-90.248-40.488-90.248-90.248s40.377-90.191 90.248-90.191c49.76 0 90.191 40.488 90.191 90.191-0.053 49.76-40.433 90.248-90.191 90.248zM256.056 150.783c-28.817 0-52.218 23.397-52.218 52.218s23.397 52.327 52.218 52.327c28.761 0 52.218-23.512 52.218-52.327s-23.512-52.218-52.218-52.218zM1015.904 305.981c-3.519 10.723-15.135 16.643-25.745 13.014l-197.922-65.174-171.059 513.9c-3.574 10.723-15.135 16.421-25.91 12.901-10.723-3.574-16.532-15.135-12.901-25.857l177.592-533.224c2.903-8.546 10.777-13.961 19.433-13.961 2.121 0 4.247 0.335 6.367 1.006l217.243 71.596c10.667 3.574 16.532 15.077 12.901 25.801z" />
<glyph unicode="&#xe62e;" glyph-name="history6" d="M537.002 948.069c-175.025 0-330.046-95.012-410.057-240.034l-115.016 115.016v-325.045h325.045l-140.020 140.020c65.010 125.018 190.026 210.029 340.046 210.029 205.028 0 375.052-170.024 375.052-375.052s-170.024-375.052-375.052-375.052c-165.023 0-300.040 105.015-355.049 250.035h-105.015c55.007-200.028 240.034-350.048 460.063-350.048 265.037 0 475.065 215.030 475.065 475.065s-215.030 475.065-475.065 475.065zM461.992 698.035v-255.036l235.032-140.020 40.005 65.010-200.028 120.017v210.029h-75.011z" />
<glyph unicode="&#xe62f;" glyph-name="happy47" d="M512.008-64c-282.326 0-512.008 229.682-512.008 511.992 0 282.326 229.682 512.008 512.008 512.008s512.008-229.682 512.008-512.008c0-282.31-229.682-511.992-512.008-511.992zM512.008 898.066c-248.169 0-450.074-201.905-450.074-450.074 0-248.154 201.905-450.043 450.074-450.043s450.074 201.889 450.074 450.043c0 248.169-201.905 450.074-450.074 450.074zM459.147 563.391c0-37.070-30.051-67.121-67.121-67.121s-67.121 30.051-67.121 67.121c0 37.070 30.051 67.121 67.121 67.121s67.121-30.051 67.121-67.121zM711.265 563.391c0-37.070-30.051-67.121-67.121-67.121s-67.121 30.051-67.121 67.121c0 37.070 30.051 67.121 67.121 67.121s67.121-30.051 67.121-67.121zM517.241 210.321c-142.603 0-232.144 94.991-233.46 96.447l45.568 41.945c6.58-7.076 164.094-171.34 397.074 3.732l37.207-49.501c-92.266-69.366-175.83-92.622-246.389-92.622z" />
<glyph unicode="&#xe630;" glyph-name="gps23" d="M10 761.756v-703.124h1004v703.124h-1004zM935.204 678.932v-175.156l-36.976 8.34-48.864 166.816h85.84zM592.514 678.932h224.184l46.552-158.93-278.448 62.798h-5.862l13.574 96.132zM508.088 678.932l-13.572-96.132h-242.056l41.746 96.132h213.882zM88.794 678.932h171.236l-41.746-96.132h-5.188l-124.3 70.414v25.718zM343.764 105.072h-259.148v45.978h259.148v-45.978zM442.88 217.066h-354.086v155.014l218.834 43.462 53.36-134.73h90.892l-9-63.746zM799.012 93.23h-72.45v72.448h72.45v-72.448zM921.62 93.23h-72.45v72.448h72.45v-72.448zM935.204 217.066h-407.9l9 63.746h398.898v-63.746zM610.284 364.588c-23.68-27.86-58.942-45.584-98.284-45.584-71.128 0-128.996 57.866-128.996 128.994 0 1.34 0.060 2.664 0.102 3.996l-23.414 59.118-270.898-53.804v159.878l116.040-65.736h230.198c21.5 16.038 48.144 25.544 76.968 25.544 30.236 0 58.052-10.484 80.070-27.972l343.132-77.506v-107.11l-324.918 0.182zM644.38 837.366h-264.762c-33.038 0-60.234-24.826-64.068-56.832h392.9c-3.832 32.006-31.030 56.832-64.070 56.832zM512 546.996c-54.586 0-98.996-44.41-98.996-98.996s44.41-98.994 98.996-98.994 98.994 44.408 98.994 98.994-44.408 98.996-98.994 98.996zM512 380.432c-37.256 0-67.566 30.312-67.566 67.566 0 37.258 30.31 67.566 67.566 67.566s67.566-30.308 67.566-67.566c0-37.252-30.31-67.566-67.566-67.566zM552.988 448c0-22.637-18.351-40.988-40.988-40.988s-40.988 18.351-40.988 40.988c0 22.637 18.351 40.988 40.988 40.988s40.988-18.351 40.988-40.988z" />
<glyph unicode="&#xe631;" glyph-name="footprint16" d="M286.332 641.895c0 0-291.196-298.521 223.166-676.154l102.553 119.436c-186.486 330.665 89.115 507.338 89.115 507.338l-114.577 116.936-300.257-67.557zM839.383 876.261l-148.625-7.544-18.067-147.71 148.62 7.542 18.071 147.712zM510.77 779.588l95.405 48.376-31.29 102.295-95.403-48.38 31.288-102.291zM397.882 752.089l40.91 87.569-79.253 55.331-40.904-87.569 79.246-55.331zM251.702 673.1l34.63 74.124-67.089 46.84-34.626-74.133 67.084-46.831z" />
<glyph unicode="&#xe632;" glyph-name="event7" horiz-adv-x="1073" d="M828.952 813.666v97.621c0 26.917-21.894 48.713-48.762 48.713-26.917 0-48.762-21.797-48.762-48.713v-97.621c0-26.917 21.894-48.713 48.762-48.713 26.917 0 48.762 21.797 48.762 48.713zM97.524 667.429h877.714v-48.762h-877.714v48.762zM304.762 764.952c20.187 0 36.571 16.286 36.571 36.669v121.71c0 20.236-16.335 36.669-36.571 36.669h-24.381c-20.187 0-36.571-16.286-36.571-36.669v-121.661c0-20.285 16.335-36.718 36.571-36.718h24.381zM390.095 862.476h292.571v-48.762h-292.571v48.762zM438.857 82.286v390.095h-39.253c-7.022-26.478-17.603-43.301-31.793-50.371-14.238-7.119-39.302-12.19-75.24-15.214v-33.012h98.743v-291.499h47.543zM0-15.238c0-48.762 53.638-48.762 53.638-48.762h970.362c0 0 48.762 0 48.762 48.762v877.714h-195.048v-48.762h146.286v-828.952h-975.238v828.952h146.286v48.762h-195.048v-877.714zM752.738 419.133c-8.875 17.652-4.194 8.29 0 0v0zM657.31 472.381c-50.81 0-85.967-28.818-105.374-86.455-10.386-30.915-15.555-67.974-15.555-111.128 0-55.686 8.631-100.059 25.893-133.12 20.724-39.595 52.322-59.392 94.793-59.392 47.055 0 80.945 24.235 101.669 72.655 14.287 33.792 21.455 76.459 21.455 128.098 0 54.467-7.899 97.329-23.698 128.634-20.382 40.472-53.443 60.709-99.182 60.709zM711.144 162.743c-13.507-21.114-31.646-31.695-54.467-31.695-28.331 0-48.372 17.31-60.075 51.883-7.656 22.626-11.459 52.614-11.459 89.917 0 49.591 5.998 87.089 17.944 112.542 11.995 25.502 30.915 38.229 56.759 38.229 28.184 0 47.153-13.41 56.905-40.229s14.629-61.050 14.629-102.595c0.049-57.588-6.729-96.939-20.236-118.053z" />
<glyph unicode="&#xe633;" glyph-name="email23" horiz-adv-x="964" d="M957.877 653.786h-363.033v237.048c0 38.065-31.101 69.166-69.137 69.166h-456.542c-38.065 0-69.166-31.101-69.166-69.166v-885.668c0-38.065 31.101-69.166 69.166-69.166h456.542c38.035 0 69.137 31.101 69.137 69.166v204.338h202.758l2.048 5.53 164.401 438.782-6.173-0.029zM359.99 592.929l120.923-132.86-247.961-206.21 127.038 339.071zM386.030 621.661h518.568l-334.858-201.734-183.711 201.734zM224.379 910.115h146.056c4.623 0 8.397-3.745 8.397-8.368 0-4.594-3.774-8.368-8.397-8.368h-146.056c-4.623 0-8.339 3.774-8.339 8.368 0 4.623 3.716 8.368 8.339 8.368zM297.407-29.476c-19.076 0-34.583 15.477-34.583 34.612 0 19.076 15.477 34.583 34.583 34.583s34.612-15.477 34.612-34.583c0-19.135-15.507-34.612-34.612-34.612zM546.715 63.945h-498.614v786.337h498.614v-196.526h-196.058l-8.719-23.231h-240.969v-53.045h221.103l-17.701-47.252h-130.9v-39.791h115.979l-14.98-39.966h-76.246v-32.301h64.133l-78.177-208.639h362.565l-0.029-145.588zM259.869 241.6l239.008 198.749 55.619-61.091 101.379 61.091 90.085-198.749h-486.092zM782.095 253.829l-93.479 206.239 220.517 132.86-127.038-339.1z" />
<glyph unicode="&#xe634;" glyph-name="edit12" d="M320 64h-192v192l192-192zM1024 768l-640-640-192 192 640 640 192-192zM128-64v64h704v-64h-704z" />
<glyph unicode="&#xe635;" glyph-name="delivery42" d="M346.432 830.208c0-62.722-50.846-113.568-113.568-113.568s-113.568 50.846-113.568 113.568c0 62.722 50.846 113.568 113.568 113.568s113.568-50.846 113.568-113.568zM362.336 458.72h-199.776c-6.176 0-11.232 5.024-11.232 11.2v86.24c0 2.112 0.832 4.128 2.336 5.632 1.504 1.472 3.52 2.304 5.664 2.304 0.384 0 0.736 0 1.12 0 4.544-0.032 8.192-3.712 8.192-8.256v-74.656c0-2.848 2.304-5.152 5.152-5.152h22.496v120.576c0 18.656 15.136 33.792 33.792 33.792h184.16v10.368c0 28.672-23.264 51.904-51.904 51.904-12.288 0-248.16 0-262.88 0-28.672 0-51.904-23.232-51.904-51.904v-233.952c0-28.672 23.232-51.904 51.904-51.904h262.88c28.672 0 51.904 23.264 51.904 51.904s-23.232 51.904-51.904 51.904zM500 613.088h-88.992c-7.488 0-13.6-6.080-13.6-13.6v-62.048c0-7.52-6.080-13.6-13.6-13.6h-33.568c-7.52 0-13.632 6.080-13.632 13.6v62.048c0 7.52-6.080 13.6-13.632 13.6h-88.96c-11.296 0-20.448-9.152-20.448-20.448v-116.608h148.768c38.144 0 69.184-31.040 69.184-69.184 0-20.768-9.344-39.232-23.904-51.904h92.384c11.296 0 20.448 9.152 20.448 20.448v217.248c0 11.296-9.152 20.448-20.448 20.448zM115.968 9.344c0-38.208 30.976-69.184 69.216-69.184 20.256 0 38.336 8.864 51.008 22.784 12.64-13.92 30.72-22.784 51.008-22.784 38.176 0 69.184 30.976 69.184 69.184v328.288h-240.416v-328.288zM901.056 700.992h-248.64c-28.672 0-51.904-23.232-51.904-51.904v-354.368c0-28.64 23.232-51.904 51.904-51.904 2.016 0 3.968 0.384 5.952 0.608v-225.76c0-38.208 31.008-69.184 69.184-69.184 19.232 0 36.32 8.128 48.8 20.8h0.736c12.48-12.672 29.568-20.8 48.768-20.8 38.176 0 69.184 30.976 69.184 69.184v225.76c2.016-0.224 3.904-0.608 5.984-0.608 28.672 0 51.872 23.264 51.872 51.904v354.4c0.032 28.672-23.2 51.872-51.84 51.872zM890.304 839.232c0-62.722-50.846-113.568-113.568-113.568s-113.568 50.846-113.568 113.568c0 62.722 50.846 113.568 113.568 113.568s113.568-50.846 113.568-113.568z" />
<glyph unicode="&#xe636;" glyph-name="delivery35" d="M563.675 752.408h-78.25v-38.781h-36.554v38.781h-78.729c-28.454 0-51.523-23.067-51.523-51.523v-120.873l89.431-83.643c5.846-5.472 10.386-11.907 13.966-18.808h141.658c28.454 0 51.523 23.067 51.523 51.521v171.804c0.001 28.454-23.066 51.521-51.521 51.521zM489.674 603.028v-75.712h-45.732v75.712c-31.173 0-31.165 0-32.329 0l55.395 65.553 55.194-65.793c0.001 0-0.315 0.241-32.527 0.241zM19.671 854.004c0 58.541 47.456 105.996 105.996 105.996s105.996-47.455 105.996-105.996c0-58.54-47.456-105.994-105.996-105.994s-105.996 47.455-105.996 105.994zM386.053 422.214c-6.806-7.279-16.027-10.961-25.265-10.961-8.461 0-16.947 3.091-23.619 9.322l-142.326 133.12v-204.050c0-21.782-10.271-40.974-26.008-53.654l77.188-317.23c4.517-18.56-6.874-37.272-25.434-41.782-2.744-0.676-5.498-0.979-8.2-0.979-15.588 0-29.732 10.589-33.582 26.413l-44.324 182.157-24.96-174.44c-2.719-18.898-20.257-32.054-39.139-29.335-18.915 2.702-32.046 20.215-29.344 39.13l44.836 313.28c-17.728 12.526-29.382 33.084-29.382 56.439v268.576c0 38.202 30.973 69.175 69.175 69.175 8.842 0 17.225-1.814 24.998-4.837 6.088-1.221 11.942-3.99 16.809-8.538l216.947-202.913c13.948-13.056 14.683-34.944 1.628-48.893zM898.333 748.010c-58.54 0-105.996 47.455-105.996 105.994 0 58.541 47.457 105.996 105.996 105.996s105.996-47.455 105.996-105.996c0-58.54-47.456-105.994-105.996-105.994zM639.576 471.107l216.947 202.913c4.867 4.548 10.721 7.316 16.809 8.538 7.773 3.025 16.156 4.837 24.998 4.837 38.202 0 69.175-30.973 69.175-69.175v-268.575c0-23.355-11.656-43.913-29.382-56.439l44.836-313.28c2.702-18.915-10.428-36.428-29.344-39.13-18.881-2.719-36.42 10.437-39.139 29.335l-24.961 174.44-44.324-182.157c-3.85-15.825-17.994-26.414-33.582-26.414-2.702 0-5.455 0.303-8.2 0.979-18.56 4.509-29.952 23.222-25.434 41.782l77.188 317.23c-15.738 12.68-26.008 31.872-26.008 53.654v204.051l-142.326-133.12c-6.671-6.232-15.158-9.322-23.619-9.322-9.238 0-18.459 3.681-25.265 10.961-13.055 13.949-12.32 35.837 1.629 48.892z" />
<glyph unicode="&#xe637;" glyph-name="delivery34" d="M404.449 726.428c0-11.994-9.723-21.716-21.718-21.716s-21.716 9.723-21.716 21.716 9.723 21.716 21.716 21.716c11.995 0 21.718-9.724 21.718-21.716zM512 831.589c11.994 0 21.716 9.723 21.716 21.716s-9.723 21.716-21.716 21.716c-11.994 0-21.718-9.723-21.718-21.716s9.724-21.716 21.718-21.716zM499.585 700.667l144.25 25.121-144.25 25.12c-2.789 0.474-5.805 0.513-8.75 0-13.873-2.415-23.162-15.62-20.745-29.494 2.415-13.875 15.621-23.163 29.495-20.748zM533.716 597.16c0 11.994-9.723 21.718-21.716 21.718s-21.718-9.723-21.718-21.718c0-11.994 9.723-21.715 21.718-21.715s21.716 9.723 21.716 21.715zM466.784 495.997c-107.575 21.133-188.992 116.119-188.992 229.796 0 132.86 111.199 240.234 245.417 233.944 120.773-5.661 219.447-106.266 222.902-227.122 3.334-116.681-79.173-215.066-188.893-236.62h-90.433zM791.249 44.315c8.883 0 16.083-7.201 16.083-16.083v-32.374c0-8.883-7.201-16.083-16.083-16.083h-45.041v-27.69c0-8.883-7.201-16.083-16.083-16.083h-48.251c-8.883 0-16.083 7.201-16.083 16.083v27.69h-311.657v-27.69c0-8.883-7.201-16.083-16.083-16.083h-48.251c-8.883 0-16.083 7.201-16.083 16.083v27.69h-40.963c-8.883 0-16.083 7.201-16.083 16.083v32.374c0 8.883 7.201 16.083 16.083 16.083h558.495zM512.001 551.864c95.899 0 173.919 78.020 173.919 173.929 0 95.898-78.020 173.919-173.919 173.919s-173.919-78.021-173.919-173.919c-0.001-95.909 78.020-173.929 173.919-173.929zM723.69 390.559v-245.254c0-40.621-32.931-73.55-73.55-73.55h-276.28c-40.621 0-73.55 32.929-73.55 73.55v245.254c0 40.621 32.931 73.55 73.55 73.55h112.39v-55.361h52.183v55.361h111.706c40.621 0 73.551-32.929 73.551-73.55zM591.078 250.518l-78.792 93.925-79.078-93.582c1.661 0 1.651 0 46.152 0v-108.081h65.284v108.081c45.984 0 46.435-0.343 46.435-0.343z" />
<glyph unicode="&#xe638;" glyph-name="delivery24" d="M200.189 953.295h285.852l-26.634-213.016h-459.407l150.839 189.243c11.974 15.023 30.14 23.773 49.35 23.773zM823.811 953.295h-285.852l26.634-213.016h459.407l-150.839 189.243c-11.974 15.023-30.14 23.773-49.35 23.773zM1024 703.744v-682.153c0-43.567-35.319-78.886-78.886-78.886h-866.227c-43.567 0-78.886 35.319-78.886 78.886v682.153h459.407v-269.148h105.184v269.148h459.409zM828.78 238.95h20.581v-158.332c0-6.988 5.663-12.65 12.65-12.65h31.626c6.986 0 12.65 5.663 12.65 12.65v158.332h20.584c9.74 0 15.826 10.543 10.956 18.977l-49.051 84.941c-4.87 8.433-17.043 8.433-21.911-0.001l-49.041-84.941c-4.87-8.434 1.217-18.976 10.956-18.976zM639.011 238.95h20.582v-158.332c0-6.988 5.663-12.65 12.65-12.65h31.626c6.986 0 12.65 5.663 12.65 12.65v158.332h20.581c9.738 0 15.826 10.543 10.954 18.977l-49.051 84.941c-4.87 8.433-17.042 8.433-21.911-0.001l-49.041-84.941c-4.868-8.434 1.219-18.976 10.958-18.976zM961.833 31.232c0 3.493-2.833 6.324-6.326 6.324h-349.057c-3.493 0-6.324-2.833-6.324-6.324v-18.976c0-3.493 2.833-6.326 6.324-6.326h349.057c3.493 0 6.326 2.833 6.326 6.326v18.976z" />
<glyph unicode="&#xe639;" glyph-name="delivery22" d="M1024 411.927v36.152c0 17.624-7.049 34.515-19.578 46.911l-194.413 192.349c-12.355 12.224-29.033 19.080-46.413 19.080h-98.088v36.79c0 27.334-22.158 49.492-49.492 49.492h-566.524c-27.334 0-49.492-22.158-49.492-49.492v-331.282h1024zM723.745 641.585c0 4.289 3.465 7.754 7.754 7.754h35.799c1.98 0 3.959-0.826 5.444-2.145l152.271-145.343c5.114-4.785 1.65-13.363-5.279-13.363h-188.236c-4.289 0-7.754 3.464-7.754 7.753v145.344zM1024 384.58v-109.569c0-27.334-22.158-49.492-49.492-49.492h-52.957c-9.568 65.66-66.156 116.142-134.454 116.142-68.134 0-124.721-50.482-134.29-116.142h-268.415c-9.568 65.66-66.156 116.142-134.29 116.142s-124.721-50.482-134.289-116.142h-66.321c-27.334 0-49.492 22.158-49.492 49.492v109.569h1024zM787.168 308.6c-56.692 0-102.651-45.958-102.651-102.651s45.96-102.651 102.651-102.651 102.651 45.958 102.651 102.651-45.958 102.651-102.651 102.651zM787.168 154.623c-28.346 0-51.325 22.98-51.325 51.327s22.979 51.325 51.325 51.325 51.327-22.979 51.327-51.325-22.98-51.327-51.327-51.327zM250.084 308.6c-56.692 0-102.651-45.958-102.651-102.651s45.96-102.651 102.651-102.651 102.651 45.958 102.651 102.651-45.96 102.651-102.651 102.651zM250.084 154.623c-28.346 0-51.327 22.98-51.327 51.327s22.98 51.325 51.327 51.325 51.325-22.979 51.325-51.325-22.98-51.327-51.325-51.327z" />
<glyph unicode="&#xe63a;" glyph-name="delivered" d="M971.447 732.942l-139.313 61.944-439.805-206.762v-132.773l-76.723 34.115v132.773l439.807 206.761-147.724 65.683c-19.78 8.795-52.146 8.795-71.926 0l-363.757-161.741c-28.978-12.884-52.627-49.376-52.553-81.091l0.567-239.667c22.803 7.337 47.064 11.388 72.274 11.388 130.424 0 236.545-106.121 236.545-236.561 0-34.067-7.383-66.396-20.406-95.688l128.442-54.907c19.133-8.178 50.442-8.18 69.577-0.004l362.926 155.096c29.472 12.595 53.646 49.121 53.723 81.171l0.899 379.172c0.074 31.713-23.574 68.205-52.553 81.089zM831.005 457.772l49.289 103.987c4.975 10.496 17.449 16.552 22.442 10.86l50.579-57.66c5.050-5.757-1.359-18.868-11.494-23.57l-21.289-9.876-0.43-149.8c-0.019-6.546-5.801-14.339-12.897-17.4l-31.872-13.757c-6.986-3.017-12.639-0.22-12.643 6.24l-0.108 147.835-20.622-9.567c-9.697-4.502-15.77 2.552-10.956 12.709zM649.267 372.8l44.797 98.851c4.518 9.971 16.070 15.58 20.785 10.058l47.741-55.923c4.767-5.582-1.052-18.035-10.437-22.388l-19.713-9.146 1.271-143.438c0.055-6.272-5.245-13.658-11.825-16.498l-29.555-12.758c-6.481-2.798-11.782-0.044-11.858 6.148l-1.732 141.632-19.122-8.87c-8.992-4.172-14.732 2.671-10.353 12.333zM977.001 291.937c-0.022-3.29-2.98-7.191-6.602-8.713l-337.571-141.816c-3.15-1.324-5.741 0.063-5.787 3.098l-0.26 16.499c-0.047 3.041 2.469 6.596 5.624 7.94l338.173 144.056c3.63 1.546 6.559 0.127 6.538-3.172l-0.116-17.892zM192.293 379.309c-106.2 0-192.293-86.093-192.293-192.293s86.093-192.293 192.293-192.293 192.293 86.093 192.293 192.293-86.093 192.293-192.293 192.293zM317.944 226.523l-118.335-133.126c-5.829-6.557-13.947-9.924-22.122-9.924-6.493 0-13.023 2.124-18.468 6.486l-73.958 59.167c-12.755 10.198-14.828 28.818-4.616 41.573 10.198 12.769 28.826 14.835 41.581 4.622l52.024-41.617 99.679 112.137c10.842 12.206 29.548 13.318 41.761 2.456 12.211-10.862 13.309-29.554 2.454-41.774z" />
<glyph unicode="&#xe63b;" glyph-name="dark37" d="M1008.886 46.664l-209.24 209.24c47.721 67.127 76.066 148.94 76.066 237.407 0 226.737-184.467 411.204-411.204 411.204s-411.177-184.467-411.177-411.204c0-226.722 184.439-411.177 411.177-411.177 94.721 0 181.797 32.499 251.373 86.504l159.434-159.434c1.963-1.963 4.156-3.516 6.298-5.139l42.339-42.339 84.936 84.936zM464.537 178.856c-173.388 0.010-314.438 141.079-314.438 314.438 0 173.388 141.065 314.438 314.438 314.438s314.438-141.050 314.438-314.438c0-72.141-24.65-138.491-65.682-191.609-13.559-17.538-28.793-33.726-45.706-48.060-54.834-46.521-125.665-74.771-203.053-74.771z" />
<glyph unicode="&#xe63c;" glyph-name="checkbox" d="M755.699 130.423h-607.052v607.057h473.81l136.252 136.25h-746.309v-879.555h879.551v563.198l-136.25-136.252zM297.919 554.363l-96.345-96.342 231.284-231.286 578.747 578.749-96.345 96.342-482.402-482.402z" />
<glyph unicode="&#xe63d;" glyph-name="commercial34" d="M833.285 490.070l71.433 161.698 17.267-7.628-62.266-143.013 63.844-27.796 89.913 206.516-80.62 35.616 55.286 125.146-204.93 90.532-139.367-315.473h-633.605v-497.833h823.045v372.235zM719.969 615.668l43.512 98.494 77.543-34.256-128.584-291.068-66.51-45.66-11.034 79.916 85.072 192.573zM896.309 805.051l-27.147-61.452-77.543 34.256 27.147 61.452 77.543-34.256zM763.653 187.467h-683.781v358.569h533.212l-28.962-65.56h-411.318v-69.632h393.491l26.079-188.895 171.278 117.586v-152.068zM172.804 323.462h335.88v-69.632h-335.88v69.632z" />
<glyph unicode="&#xe63e;" glyph-name="comments8" horiz-adv-x="1160" d="M1081.911 931.611h-1003.442c-25.561 0-46.346-20.744-46.346-46.346v-704.497c0-25.561 20.744-46.346 46.346-46.346h556.32l213.374-159.413c28.812-21.527 52.356-9.714 52.356 26.261v133.194h181.351c25.561 0 46.346 20.744 46.346 46.346v704.497c0 25.561-20.744 46.305-46.305 46.305zM327.405 466.872c-39.596 0-71.659 32.105-71.659 71.659 0 39.596 32.105 71.659 71.659 71.659s71.659-32.105 71.659-71.659c-0.041-39.555-32.105-71.659-71.659-71.659zM580.211 466.872c-39.596 0-71.659 32.105-71.659 71.659 0 39.596 32.105 71.659 71.659 71.659s71.659-32.105 71.659-71.659c0-39.555-32.064-71.659-71.659-71.659zM833.016 466.872c-39.596 0-71.659 32.105-71.659 71.659 0 39.596 32.105 71.659 71.659 71.659s71.659-32.105 71.659-71.659c0-39.555-32.064-71.659-71.659-71.659z" />
<glyph unicode="&#xe63f;" glyph-name="clock101" horiz-adv-x="791" d="M395.636 52.493c-218.117 0-395.636 177.519-395.636 395.636 0 81.713 24.824 160.194 72.016 227.038 46.028 65.164 109.64 114.554 184.113 142.998 4.137 1.552 8.663-0.517 10.214-4.655s-0.517-8.663-4.655-10.214c-71.499-27.152-132.655-74.731-176.743-137.309-45.123-64-69.042-139.378-69.042-217.859 0-209.455 170.408-379.733 379.733-379.733s379.733 170.408 379.733 379.733c0 97.616-38.917 193.939-106.667 264.404-73.051 73.956-176.356 118.562-265.18 114.941v-56.372c0-4.396-3.491-7.887-7.887-7.887s-7.887 3.491-7.887 7.887v63.871c0 4.137 3.232 7.628 7.37 7.887 94.901 6.723 206.869-40.081 285.091-119.337 70.594-73.438 111.192-173.77 111.192-275.394-0.129-218.117-177.648-395.636-395.766-395.636zM395.636 440.242c-1.034 0-2.069 0.259-2.974 0.646-2.974 1.164-4.913 4.137-4.913 7.37v323.749c0 4.396 3.491 7.887 7.887 7.887s7.887-3.491 7.887-7.887v-304.614l133.947 133.947c3.103 3.103 8.145 3.103 11.248 0s3.103-8.145 0-11.248l-147.523-147.523c-1.422-1.552-3.491-2.327-5.56-2.327z" />
<glyph unicode="&#xe640;" glyph-name="circular191" d="M512.012-64c-282.314 0-512.012 229.675-512.012 511.988s229.698 512.012 512.012 512.012 512.012-229.675 512.012-512.012-229.698-511.988-512.012-511.988zM512.012 925.278c-263.17 0-477.29-214.119-477.29-477.29s214.119-477.29 477.29-477.29 477.29 214.119 477.29 477.29-214.119 477.29-477.29 477.29zM781.177 430.627h-269.165c-4.606 0-9.028 1.829-12.268 5.093l-190.323 190.323c-6.782 6.782-6.782 17.778 0 24.56s17.778 6.782 24.56 0l185.231-185.231h261.966c9.583 0 17.361-7.778 17.361-17.361s-7.778-17.384-17.361-17.384z" />
<glyph unicode="&#xe641;" glyph-name="caution2" d="M1001.643 105.343l-434.472 752.478c-11.299 19.747-32.5 32.009-55.282 32.009-22.727 0-43.908-12.245-55.299-31.937l-436.416-755.967c-11.372-19.675-11.372-44.108 0-63.783 11.372-19.73 32.555-31.991 55.263-31.991h873.141c35.17 0 63.783 28.648 63.783 63.855 0 13.134-3.887 25.778-10.718 35.334zM948.58 43.158h-873.121c-9.555 0-18.493 5.123-23.27 13.425-4.796 8.301-4.814 18.603 0 26.904l436.416 755.947c4.778 8.265 13.698 13.425 23.29 13.425 9.555 0 18.549-5.159 23.308-13.425l435.345-753.985c3.178-4.541 4.904-9.864 4.904-15.459 0-14.788-12.081-26.831-26.868-26.831zM531.965 263.391l10.065 343.566h-75.010l10.010-343.566zM504.514 214.159c-26.123 0-45.071-19.819-45.071-47.105 0-27.358 18.948-47.178 45.071-47.178 26.54 0 45.109 19.365 45.109 47.178 0 27.741-18.549 47.105-45.109 47.105z" />
<glyph unicode="&#xe642;" glyph-name="camera74" d="M31.717 416.066l467.756-28.508c2.177-0.117 4.709-0.136 6.937 0 31.060 1.893 54.793 28.313 53.5 59.268-1.335 31.943-29.651 56.429-61.562 54.485l-466.631-28.439c-35.634-2.173-35.634-54.634 0-56.807zM465.817 869.166c0-31.805-25.784-57.587-57.587-57.587s-57.587 25.784-57.587 57.587c0 31.805 25.784 57.587 57.587 57.587s57.587-25.784 57.587-57.587zM521.649 829.783c94.13-5.707 181.829-45.091 249.085-112.346 72.91-72.91 113.066-169.853 113.067-272.967 0-102.332-40.711-200.617-113.071-272.975-72.91-72.908-169.852-113.062-272.964-113.062-85.853 0-167.112 27.573-234.991 79.736-59.414 45.659-104.754 108.444-129.434 178.644-4.465 12.7-17.993 19.775-30.952 16.127l-36.875-10.379c-14.133-3.978-21.944-19.031-17.165-32.911 13.706-39.817 32.666-77.597 56.54-112.607 28.531-41.839 63.366-78.709 103.546-109.583 40.623-31.219 85.678-55.508 133.908-72.193 49.89-17.258 102.183-26.011 155.425-26.011 64.135 0 126.374 12.571 184.991 37.364 56.594 23.938 107.412 58.196 151.041 101.825s77.888 94.446 101.825 151.041c24.793 58.615 37.364 120.857 37.364 184.991s-12.571 126.374-37.364 184.991c-15.453 36.535-35.234 70.647-59.035 101.988l52.958 52.958c9.951 9.951 9.951 26.084 0 36.036l-54.053 54.053c-9.951 9.951-26.084 9.951-36.036 0l-52.725-52.725c-31.883 24.479-66.663 44.774-103.974 60.555-50.435 21.333-103.555 33.618-158.254 36.63-14.543 0.802-26.737-10.888-26.737-25.453v-38.296c0-13.453 10.458-24.609 23.886-25.423z" />
<glyph unicode="&#xe643;" glyph-name="month1" horiz-adv-x="1009" d="M755.703 743.844c39.343 0 71.056 31.573 71.056 70.88v74.255c0 39.378-31.713 71.021-71.056 71.021-39.167 0-70.95-31.643-70.95-71.021v-74.291c0.035-39.272 31.784-70.845 70.95-70.845zM1008.143 837.015h-143.061v-35.967c0-59.735-48.484-108.219-108.078-108.219-59.735 0-108.148 48.484-108.148 108.219v35.967h-288.372v-35.967c0-59.735-48.449-108.219-108.113-108.219-59.77 0-108.078 48.484-108.078 108.219v35.967l-144.292 1.863v-902.808l1009.269 0.211-1.125 900.733zM937.123 7.9h-864.977v576.815h865.012v-576.815zM251.139 743.844c39.343 0 71.056 31.573 71.056 70.88v74.255c-0.035 39.378-31.713 71.021-71.056 71.021-39.202 0-70.95-31.643-70.95-71.021v-74.291c0-39.272 31.748-70.845 70.95-70.845zM266.82 195.226c14.837-8.087 48.554-21.763 82.483-21.763 43.034 0 64.798 20.673 64.798 46.902 0 35.37-35.018 51.226-71.302 51.226h-33.893v59.454h32.627c27.846 0 62.758 10.934 62.758 40.925 0 21.271-16.982 37.093-52.316 37.093-28.936 0-59.348-12.552-73.658-21.341l-16.911 59.946c21.412 13.677 63.286 26.791 109.695 26.791 75.31 0 117.079-39.765 117.079-88.249 0-37.69-21.13-67.716-64.868-82.342v-1.16c42.577-7.629 76.963-39.835 76.963-86.666 0-62.161-55.059-107.938-145.1-107.938-45.882 0-84.487 11.954-105.16 24.576l16.806 62.548zM660.704 394.787h-0.984l-67.61-32.135-13.677 62.196 94.296 43.562h68.173v-354.401h-80.197z" />
<glyph unicode="&#xe644;" glyph-name="calculator45" d="M739.533 960h-455.066c-83.476 0-151.777-68.26-151.777-151.695v-720.609c0-83.436 68.301-151.695 151.777-151.695h455.066c83.456 0 151.736 68.26 151.736 151.695v720.609c0.020 83.436-68.26 151.695-151.736 151.695zM376.545 87.695c0-20.828-17.060-37.929-37.949-37.929h-54.129c-20.91 0-37.99 17.101-37.99 37.929v54.19c0 20.849 17.101 37.929 37.99 37.929h54.129c20.89 0 37.949-17.060 37.949-37.929v-54.19zM376.545 288.195c0-20.89-17.060-37.929-37.949-37.929h-54.129c-20.91 0-37.99 17.060-37.99 37.929v54.129c0 20.849 17.101 37.929 37.99 37.929h54.129c20.89 0 37.949-17.060 37.949-37.929v-54.129zM577.004 87.695c0-20.828-17.019-37.929-37.908-37.929h-54.211c-20.849 0-37.888 17.101-37.888 37.929v54.19c0 20.849 17.039 37.929 37.888 37.929h54.211c20.89 0 37.908-17.060 37.908-37.929v-54.19zM577.004 288.195c0-20.89-17.019-37.929-37.908-37.929h-54.211c-20.849 0-37.888 17.060-37.888 37.929v54.129c0 20.849 17.039 37.929 37.888 37.929h54.211c20.89 0 37.908-17.060 37.908-37.929v-54.129zM777.482 87.695c0-20.828-17.080-37.929-37.949-37.929h-54.149c-20.91 0-37.97 17.101-37.97 37.929v54.19c0 20.849 17.060 37.929 37.97 37.929h54.149c20.869 0 37.949-17.060 37.949-37.929v-54.19zM777.482 288.195c0-20.89-17.080-37.929-37.949-37.929h-54.149c-20.91 0-37.97 17.060-37.97 37.929v54.129c0 20.849 17.060 37.929 37.97 37.929h54.149c20.869 0 37.949-17.060 37.949-37.929v-54.129zM777.482 523.878c0-20.869-17.080-37.949-37.949-37.949h-455.066c-20.91 0-37.99 17.080-37.99 37.949v262.758c0 20.849 17.101 37.929 37.99 37.929h455.066c20.869 0 37.949-17.060 37.949-37.929v-262.758zM449.147 793.58c-37.069 0-54.764-32.891-54.764-74.445 0.225-40.653 16.527-73.974 53.699-73.974 36.598 0 54.559 30.515 54.559 74.875 0 39.322-15.053 73.544-53.494 73.544zM448.942 670.556c-13.066 0-20.992 15.688-20.746 48.579-0.266 33.382 8.131 49.070 20.48 49.070 13.517 0 20.357-16.814 20.357-48.579 0-32.748-7.025-49.070-20.091-49.070zM571.843 793.58c-37.151 0-54.845-32.891-54.845-74.445 0.246-40.653 16.609-73.974 53.699-73.974 36.7 0 54.579 30.515 54.579 74.875 0 39.322-14.991 73.544-53.432 73.544zM571.597 670.556c-13.025 0-21.053 15.688-20.808 48.579-0.266 33.382 8.192 49.070 20.582 49.070 13.414 0 20.296-16.814 20.296-48.579 0.020-32.748-7.066-49.070-20.070-49.070zM694.497 793.58c-37.11 0-54.764-32.891-54.764-74.445 0.246-40.653 16.507-73.974 53.658-73.974 36.68 0 54.538 30.515 54.538 74.875 0.020 39.322-15.032 73.544-53.432 73.544zM694.272 670.556c-13.087 0-20.992 15.688-20.705 48.579-0.307 33.382 8.11 49.070 20.46 49.070 13.496 0 20.296-16.814 20.296-48.579 0.020-32.748-7.025-49.070-20.050-49.070z" />
<glyph unicode="&#xe645;" glyph-name="boxes2" d="M1003.459 675.736l-470.404 192.142c-16.132 6.589-34.214 6.538-50.309-0.143l-462.377-191.935c-12.332-5.119-20.369-17.157-20.369-30.509v-68.786c0-18.244 14.789-33.032 33.032-33.032h24.774c4.561 0 8.259-3.697 8.259-8.259v-437.678c0-41.047 33.275-74.323 74.323-74.323h21.587v397.12h700.051v-397.12h21.587c41.047 0 74.323 33.275 74.323 74.323v437.678c0 4.561 3.697 8.259 8.259 8.259h24.774c18.244 0 33.032 14.789 33.032 33.032v68.65c-0.001 13.42-8.12 25.505-20.543 30.58zM330.323 543.474h-165.162v74.323h165.161v-74.323zM594.58 543.474h-165.161v74.323h165.161v-74.323zM858.839 543.474h-165.162v74.323h165.161v-74.323zM373.29 188.317h-47.005v-64.847h-21.958v64.847h-47.293c-17.093 0-30.949-13.857-30.949-30.949v-103.203c0-17.093 13.857-30.949 30.949-30.949h116.257c17.093 0 30.949 13.856 30.949 30.949v103.203c0 17.092-13.857 30.949-30.949 30.949zM570.19 188.317h-47.005v-64.847h-21.958v64.847h-47.293c-17.093 0-30.949-13.857-30.949-30.949v-103.203c0-17.093 13.857-30.949 30.949-30.949h116.257c17.093 0 30.949 13.856 30.949 30.949v103.203c0.001 17.092-13.856 30.949-30.949 30.949zM770.747 188.317h-47.005v-64.847h-21.958v64.847h-47.293c-17.093 0-30.949-13.857-30.949-30.949v-103.203c0-17.093 13.857-30.949 30.949-30.949h116.257c17.093 0 30.949 13.856 30.949 30.949v103.203c0.001 17.092-13.856 30.949-30.949 30.949zM472.147 374.552h-47.005v-64.847h-21.958v64.847h-47.293c-17.093 0-30.949-13.857-30.949-30.949v-103.203c0-17.093 13.857-30.949 30.949-30.949h116.257c17.093 0 30.949 13.856 30.949 30.949v103.203c0.001 17.093-13.856 30.949-30.949 30.949zM673.852 374.552h-47.005v-64.847h-21.958v64.847h-47.293c-17.093 0-30.949-13.857-30.949-30.949v-103.203c0-17.093 13.857-30.949 30.949-30.949h116.257c17.093 0 30.949 13.856 30.949 30.949v103.203c0.001 17.093-13.856 30.949-30.949 30.949z" />
<glyph unicode="&#xe646;" glyph-name="box79" d="M978.444 294.914c-15.845 7.531-45.182 14.231-94.972 3.39-3.442-0.632-231.461-41.181-274.031-48.832-6.559-1.177-10.568-9.144-10.568-9.144-84.179-129.612-217.676-36.92-217.067-35.029 75.252-20.864 139.186 8.248 163.155 37.031 55.986 67.225-32.535 77.211-79.436 88.617-175.678 42.723-183.085-1.059-284.829-10.733l-155.958-22.084c-3.534-1.071-6.458-3.58-8.050-6.914-1.594-3.332-1.714-7.182-0.33-10.607l6.299-15.577c15.699-38.829 31.486-96.687 48.087-135.998 1.067-2.535 2.905-4.67 5.252-6.105 0.52-0.32 1.216-0.712 2.087-1.125 3.113-1.48 6.623-2.362 9.486-2.356l110.836 2.19c5.81 0.035 252.053-142.893 370.279-95.542l368.254 165.099c14.654 6.935 29.803 14.105 44.885 21.073 16.46 7.602 26.688 25.076 26.781 42.058 0.097 17.753-11.142 31.55-30.158 40.586zM215.31 713.67h11.055v-265.33c0-20.354 16.502-36.856 36.858-36.856h497.55c20.354 0 36.856 16.502 36.856 36.856v265.33h11.058c10.18 0 18.43 8.252 18.43 18.428v128.995c0 10.178-8.25 18.428-18.43 18.428h-593.377c-10.178 0-18.428-8.25-18.428-18.428v-128.995c0-10.176 8.25-18.428 18.428-18.428zM470.536 825.852h82.925c16.285 0 29.485-13.203 29.485-29.485 0-16.285-13.203-29.483-29.485-29.483h-82.925c-16.283 0-29.483 13.201-29.483 29.483s13.201 29.485 29.483 29.485z" />
<glyph unicode="&#xe647;" glyph-name="heart297" d="M835.539 842.637c-133.752 43.364-277.499-29.003-323.396-161.768-45.897 132.907-189.645 205.132-323.396 161.768-135.3-44.067-209.075-189.645-165.148-325.508 42.238-129.528 433.918-476.437 484.040-476.437s450.531 346.487 492.769 476.437c44.067 136.146-29.706 281.723-164.866 325.508z" />
<glyph unicode="&#xe648;" glyph-name="box52" horiz-adv-x="1028" d="M470.958 960.009l-470.958-171.261v-561.309l556.584-291.439 470.967 291.439v530.904l-556.593 201.666zM895.813 527.447l-115.682-61.038c-3.129-1.679-6.33-2.413-9.413-2.321-7.184 0.183-13.551 4.927-15.964 12.973-3.459 11.432 2.22 25.221 12.762 30.753l115.682 61.057c10.523 5.642 21.927 0.817 25.395-10.615 3.44-11.487-2.248-25.276-12.78-30.808zM563.648 544.585l-468.315 194.721 172.133 62.589 464.572-180.271-168.39-77.039zM553.336 26.938l-474.316 248.337v458.113l4.532 1.642 473.031-196.675v-509.408l-3.248-2.009zM804.783 654.909l-455.508 176.739 121.728 44.258 455.865-165.17-122.086-55.827z" />
<glyph unicode="&#xe649;" glyph-name="box39" d="M1005.425 760.187l0.696 1.823-493.896 192.942-493.097-194.939-1.608 0.635v-1.249l-0.072-0.041 0.072-0.205v-618.885l494.479-193.823 494.551 193.833v620.36l-1.126-0.451zM511.764 917.023l167.516-59.996-456.663-177.295-154.685 61.020 443.832 176.271zM494.377-9.83l-185.201 74.772-92.948 34.918-163.369 64.451v544.41l161.731-63.795v-136.131l14.418 4.024 9.738-13.384 13.558 3.164 13.138-13.875 11.459 3.953 18.504-18.35v138.721l198.973-78.479v-544.399zM512.041 565.555l-180.572 71.24 445.338 180.49 183.675-74.824-448.44-176.906zM971.233 164.311l-441.549-174.141v544.399l441.508 174.162v-544.41l0.041-0.010z" />
<glyph unicode="&#xe64a;" glyph-name="back3" horiz-adv-x="1174" d="M663.49 960c-277.591 0-503.246-222.358-510.052-499.212h-153.438l229.688-256 229.663 256h-178.301c6.731 206.149 175.316 371.212 382.439 371.212 211.419 0 382.776-171.92 382.776-384s-171.358-384-382.776-384c-84.78 0-163.078 27.698-226.491 74.502l-87.777-93.921c86.653-68.009 195.734-108.581 314.268-108.581 281.875 0 510.364 229.214 510.364 512s-228.489 512-510.364 512zM618.121 722.732v-292.839l187.654-187.617 61.802 61.802-162.017 162.029v256.624h-87.44z" />
<glyph unicode="&#xe64b;" glyph-name="arrow491" d="M330.527 404.59c25.247-35.209 52.442-73.044 86.176-108.984-76.91-88.507-188.991-169.032-408.955-169.032v161.055c174.398 0 245.037 57.831 307.516 138.136 5.028-6.926 10.098-13.961 15.264-21.174zM502.685 528.069c15.758-21.966 30.562-42.568 45.889-61.484 53.135 58.625 119.862 100.46 247.467 108.601l-39.199-99.26c-1.636-4.115-0.31-8.785 3.222-11.448 1.748-1.301 3.828-1.982 5.91-1.982 2.107 0 4.214 0.681 5.972 2.033l240.48 184.915c2.415 1.834 3.828 4.719 3.828 7.768s-1.4 5.934-3.828 7.768l-240.492 184.903c-3.506 2.688-8.375 2.714-11.881 0.047-3.53-2.664-4.856-7.334-3.222-11.448l40.289-102.010c-172.675-9.044-274.499-68.622-346.268-139.35 19.215-23.639 36.114-47.138 51.835-69.056zM771.929 431.473c-1.771 1.35-3.877 2.033-5.972 2.033-2.080 0-4.163-0.681-5.91-1.982-3.53-2.664-4.856-7.334-3.222-11.448l39.199-99.26c-182.623 11.631-240.603 92.285-312.42 192.436-81.854 114.137-183.713 256.175-475.854 256.175v-161.055c209.445 0 269.258-83.377 344.979-188.979 79.028-110.199 176.491-245.845 444.398-259.879l-40.289-102.010c-1.636-4.115-0.31-8.785 3.222-11.448 3.506-2.664 8.375-2.638 11.881 0.047l240.492 184.915c2.415 1.834 3.828 4.719 3.828 7.768s-1.4 5.934-3.828 7.768l-240.504 184.915z" />
<glyph unicode="&#xe64c;" glyph-name="arrow230" d="M999.374 736.933l-181.677 165.161c-0.149 0.132-0.347 0.165-0.495 0.297-2.312 1.998-4.872 3.518-7.581 4.525-0.33 0.116-0.677 0.198-1.007 0.314-2.246 0.727-4.591 1.123-6.92 1.189-0.231 0-0.429 0.116-0.661 0.116h-700.565v-501.71h49.548v417.131l37.26-37.26v-259.204l56.915-45.618v247.907l37.954-37.954v-285.002h49.548v270.485h626.242v-626.242h-500.868v-49.548h550.417v725.339h-1.767c-1.321 3.716-3.221 7.234-6.342 10.075zM211.555 832.479l-26.492 26.492h606.39l29.151-26.492h-609.049zM317.192 726.858l-43.025 43.008h615.308l47.319-43.008h-619.603zM597.554 237.518h84.893c23.436 0 42.446 19.010 42.446 42.446v127.339h62.745c23.436 0 29.002 13.444 12.437 30.010l-130.065 130.048c-16.582 16.582-43.454 16.582-60.020 0l-130.065-130.048c-16.582-16.582-11.016-30.010 12.437-30.010h62.745v-127.339c0-23.453 19.010-42.446 42.446-42.446zM457.067 161.082v-2.56c0.694-17.639 15.096-31.761 32.9-31.761h286.291c18.234 0 33.032 14.798 33.032 33.032s-14.798 33.032-33.032 33.032h-286.274c-17.804 0.017-32.223-14.105-32.917-31.744zM424.035 0.529v345.352c0 15.393-12.519 27.912-27.912 27.912h-345.352c-15.393 0-27.912-12.519-27.912-27.912v-345.352c0-15.393 12.519-27.912 27.912-27.912h345.352c15.393 0 27.912 12.519 27.912 27.912zM144.169 293.723c0 7.878 2.246 15.178 5.863 21.587 7.597 13.461 21.884 22.677 38.417 22.677h67.881c9.662 0 18.548-3.188 25.831-8.473 11.132-8.043 18.449-21.058 18.449-35.807v-64.809h-33.032v64.809c0 6.194-5.054 11.247-11.247 11.247h-67.881c-6.194 0-11.247-5.054-11.247-11.247v-64.809h-33.032v64.826zM129.354 24.923v188.201h188.185v-188.201h-188.185zM253.423 136.39c0 16.549-13.411 29.977-29.977 29.977-7.399 0-14.088-2.791-19.324-7.234-6.458-5.5-10.653-13.593-10.653-22.743 0-11.33 6.359-21.075 15.641-26.162l-15.244-41.571h59.194l-15.261 41.571c2.51 1.387 4.889 3.006 6.904 5.021 5.384 5.417 8.721 12.883 8.721 21.141z" />
<glyph unicode="&#xe64d;" glyph-name="box63" d="M821.719 912.58h-580.726l-193.575-309.719v-619.442h967.875v619.442l-193.575 309.719zM264.223 873.865h534.268l170.346-271.006h-874.959l170.346 271.006zM976.58 22.135h-890.445v542.012h890.445v-542.012zM434.569 215.71h193.575c42.586 0 77.431 34.844 77.431 77.431s-34.844 77.431-77.431 77.431h-193.575c-42.586 0-77.431-34.844-77.431-77.431s34.844-77.431 77.431-77.431zM434.569 331.854h193.575c23.228 0 38.715-15.486 38.715-38.715s-15.486-38.715-38.715-38.715h-193.575c-23.228 0-38.715 15.486-38.715 38.715s15.486 38.715 38.715 38.715z" />
</font>
</defs>
</svg>
